<?xml version="1.0" standalone="no"?>
<!DOCTYPE svg PUBLIC "-//W3C//DTD SVG 1.1//EN" "http://www.w3.org/Graphics/SVG/1.1/DTD/svg11.dtd" >
<svg xmlns="http://www.w3.org/2000/svg">
<metadata></metadata>
<defs>
<font id="bienetresocialregular" horiz-adv-x="1228" >
<font-face units-per-em="2048" ascent="1638" descent="-410" />
<missing-glyph horiz-adv-x="614" />
<glyph horiz-adv-x="0" />
<glyph unicode="&#xd;" horiz-adv-x="614" />
<glyph unicode=" "  horiz-adv-x="614" />
<glyph unicode="&#x09;" horiz-adv-x="614" />
<glyph unicode="&#xa0;" horiz-adv-x="614" />
<glyph unicode="!" horiz-adv-x="694" d="M203 133q0 63 44 107.5t105 44.5q63 0 106.5 -44.5t43.5 -107.5t-43 -107t-107 -44q-61 0 -105 44t-44 107zM209 1405q0 66 41 111t102 45t103.5 -45t42.5 -111q0 -41 -37 -340q-43 -365 -64 -588h-94q-16 231 -59 586q-35 303 -35 342z" />
<glyph unicode="&#x22;" horiz-adv-x="962" d="M127 1458q0 57 36 96t99 39t99 -39t36 -96q0 -35 -30 -194q-51 -270 -64 -344h-88q-16 113 -59 344q-29 158 -29 194zM565 1458q0 57 36 96t99 39t99.5 -39t36.5 -96q0 -35 -31 -194q-51 -270 -64 -344h-88q-18 127 -59 344q-29 160 -29 194z" />
<glyph unicode="#" horiz-adv-x="1363" d="M207 256v174l225 55v314l-225 -56v175l225 55q0 111 -2 413h111l-2 -389l290 74l-2 315h111l-2 -290l225 57v-174l-225 -57v-316l225 58v-172l-225 -58l2 -450h-111l2 426l-290 -72l2 -354h-111l2 327zM539 508l290 72v319l-290 -74v-317z" />
<glyph unicode="$" d="M109 348q0 143 129 144q117 0 116 -121q0 -41 -20 -72q-33 -45 -35 -53q14 -59 76 -101q74 -49 194 -51v537q-186 12 -297 104q-125 104 -125 287q0 150 97 270q117 143 325 158l-2 147h113l-4 -145q205 -4 317 -94q98 -78 99 -193q0 -141 -121 -141q-49 0 -82 29.5 t-33 76.5q0 37 16 68q25 45 29 57q-27 86 -225 95v-496q444 -40 444 -405q0 -203 -127 -326q-121 -115 -317 -131l4 -330h-113l2 328q-195 4 -327.5 104.5t-132.5 253.5zM317 1122q0 -127 64 -188q55 -54 188 -74v488q-123 -12 -192 -84q-59 -63 -60 -142zM676 96 q137 14 213 86q69 70 69 174q0 111 -71.5 183.5t-210.5 85.5v-529z" />
<glyph unicode="%" horiz-adv-x="1789" d="M98 1055q0 174 102.5 291.5t250.5 117.5q162 0 258 -104q102 -112 102 -313q0 -166 -103.5 -282t-256.5 -116q-158 0 -255.5 108.5t-97.5 297.5zM293 1057q0 -311 164 -312q159 1 159 302q0 319 -163 319q-160 0 -160 -309zM334 -20l1040 1503l115 -51l-1049 -1504z M1016 377q0 174 102.5 291.5t249.5 117.5q162 0 258 -104q103 -112 103 -313q0 -166 -103.5 -282t-257.5 -116q-158 0 -255 108.5t-97 297.5zM1210 379q0 -311 164 -311q160 0 160 301q0 319 -164 319q-160 0 -160 -309z" />
<glyph unicode="&#x26;" horiz-adv-x="1587" d="M74 348q0 154 84 270q78 106 260 224q-84 131 -115 205q-33 82 -33 161q0 152 113 250q106 96 264 96q150 0 234 -90q72 -80 71 -204q0 -213 -284 -396q113 -172 327 -446q164 250 164 370q0 49 -194 91v92h622v-94q-211 -25 -262 -95q-35 -47 -119 -204 q-78 -145 -151 -238q109 -137 196 -188q80 -47 297 -58v-94h-518l-129 178q-188 -211 -414 -211q-172 0 -284 90q-129 102 -129 291zM305 432q0 -133 75 -217t200 -84q162 0 260 121q-139 182 -369 514q-166 -115 -166 -334zM485 1255q0 -119 131 -309q191 121 191 293 q0 98 -42 151.5t-114 53.5q-90 0 -135 -74q-31 -51 -31 -115z" />
<glyph unicode="'" horiz-adv-x="524" d="M127 1460q0 57 36 95t99 38t99 -38t36 -95q0 -35 -30 -196q-51 -274 -64 -344h-88q-16 111 -59 344q-29 160 -29 196z" />
<glyph unicode="(" horiz-adv-x="798" d="M90 614q0 340 162 600q121 195 360 377l107 -65v-17q-451 -342 -451 -895q0 -565 451 -901v-16l-105 -68q-236 178 -356 369q-168 266 -168 616z" />
<glyph unicode=")" horiz-adv-x="798" d="M80 -287q451 336 450 901q0 553 -450 895v17l106 65q240 -182 361 -377q162 -260 162 -600q0 -350 -168 -616q-121 -190 -357 -369l-104 68v16z" />
<glyph unicode="*" horiz-adv-x="1019" d="M94 1262q0 96 88 96q31 0 115 -55q113 -74 186 -107q-10 76 -37 190q-25 98 -24 121q0 86 90 86q88 0 88 -86q0 -20 -25 -121q-29 -111 -36 -190q74 33 188 107q82 55 113 55q88 0 88 -96q0 -55 -60 -78q-27 -10 -120 -19q-125 -10 -195 -22q55 -61 180 -160 q76 -61 76 -106t-39 -70q-25 -23 -55 -23q-55 0 -99 93q-53 117 -106 233q-53 -117 -104 -236q-43 -90 -99 -90q-31 0 -55 23q-39 25 -39 70t76 106q125 98 180 160q-133 12 -315 41q-59 23 -60 78z" />
<glyph unicode="+" horiz-adv-x="1363" d="M150 516v148h456v458h152v-458h456v-148h-456v-459h-152v459h-456z" />
<glyph unicode="," horiz-adv-x="614" d="M96 -289q113 70 166 121q76 78 88 172h-51q-154 0 -154 146q0 51 39 93t101 42q188 0 188 -238q0 -236 -303 -426z" />
<glyph unicode="-" horiz-adv-x="696" d="M74 477v195h549v-195h-549z" />
<glyph unicode="." horiz-adv-x="614" d="M156 137q0 63 46 109.5t107 46.5q63 0 108.5 -46.5t45.5 -109.5t-45 -109t-109 -46q-61 0 -107 46t-46 109z" />
<glyph unicode="/" horiz-adv-x="878" d="M12 -338l639 1927l146 -33l-645 -1927z" />
<glyph unicode="0" d="M88 686q0 350 160 569q152 209 377 209q248 0 387 -213q129 -196 129 -503q0 -350 -153.5 -564.5t-383.5 -214.5q-248 0 -387 215q-129 197 -129 502zM340 715q0 -635 270 -635q125 0 202 173t77 466q0 287 -62 450q-70 184 -209 185q-125 0 -201.5 -173t-76.5 -466z" />
<glyph unicode="1" d="M205 1333l35 80q117 -53 229 -53q145 0 283 98h63q-31 -184 -31 -346v-879q0 -80 66 -108q55 -25 192 -31v-94h-757v94q168 8 202 21q70 25 70 108v983q-31 -10 -92 -10q-98 0 -260 137z" />
<glyph unicode="2" d="M117 0v123q260 203 303 239q111 92 203 203q188 223 188 479q0 145 -70 230q-63 78 -168 78q-92 0 -158.5 -45t-72.5 -119l35 -53q27 -41 26 -88q0 -145 -139 -146q-68 0 -104 55q-33 45 -33 109q0 150 121 264q137 135 364 135q193 0 318 -115.5t125 -304.5 q0 -223 -121 -378q-127 -166 -494 -400l-41 -65h469q70 0 123 80q16 25 74 153l86 -28l-137 -406h-897z" />
<glyph unicode="3" d="M74 276q0 90 48 142.5t122 52.5q123 0 123 -121q0 -59 -49.5 -98t-49.5 -66q0 -59 57.5 -96t166.5 -37q156 0 263 122t107 296q0 229 -174 229q-80 0 -180 -104l-64 106q207 143 269 207q109 111 108 238q0 92 -53 149q-59 61 -166 62q-78 0 -139 -47q-45 -37 -53 -66 q12 -27 22 -51q16 -39 17 -86q0 -141 -132 -141q-68 0 -102 53q-29 41 -29 98q0 123 119 228q137 119 354 118q211 0 322 -116q84 -90 84 -199q0 -258 -338 -342l-22 -21q41 4 63 5q127 0 221 -72q119 -92 119 -266q0 -236 -174 -373q-166 -135 -438 -135q-162 0 -285 84 q-137 94 -137 247z" />
<glyph unicode="4" d="M29 469v137l678 869h122v-881q152 0 189 29q59 55 63 176h78v-549h-72q-4 139 -67 192q-25 20 -70 25q-18 2 -121 2v-236q0 -86 60 -112q47 -20 153 -27v-94h-647v94q63 2 156 17q61 25 61 110v248h-583zM160 594h450v328q0 79 27 278h-8z" />
<glyph unicode="5" d="M90 254q0 82 51 125q39 31 92 31q115 0 115 -105q0 -47 -19.5 -84t-21.5 -67q8 -31 70.5 -55.5t150.5 -24.5q162 0 252 149q76 127 76 301q0 139 -84 209q-72 57 -188 58q-86 0 -162 -41q-92 -49 -119 -134l-117 27l174 811h95q82 -86 293 -86q115 0 192 29q63 25 150 88 l53 -51q-145 -285 -613 -285q-82 0 -122 12l-72 -336q139 84 293 84q197 0 325 -112q141 -125 142 -340q0 -227 -170 -363q-158 -127 -396 -127q-199 0 -323 86q-117 82 -117 201z" />
<glyph unicode="6" d="M104 594q0 389 226 663q221 268 520 269q158 0 240 -86q59 -66 59 -150q0 -137 -123 -137q-74 0 -99.5 64.5t-45.5 130.5q-23 53 -127 53q-145 0 -255 -159t-153 -413l6 -2q133 174 371 174q158 0 276 -133q127 -141 127 -352q0 -205 -114 -356q-145 -190 -426 -191 q-207 0 -340 164q-141 172 -142 461zM334 469q0 -182 82 -291q76 -100 180 -100q160 0 231 153q52 111 52 281q0 354 -275 354q-106 0 -180 -90q-90 -109 -90 -307z" />
<glyph unicode="7" d="M131 940l139 600h76l19 -129h825v-57q-131 -190 -170 -254q-82 -137 -143 -297q-80 -207 -111 -328q-47 -178 -59 -389q-12 -199 -148 -199q-63 0 -94 35t-31 129q0 176 252 660q39 76 291 489h-522q-150 0 -236 -272z" />
<glyph unicode="8" d="M104 340q0 137 99 246q78 88 184 129v4q-121 61 -172 131q-59 80 -59 205q0 180 151 305q141 119 326 119q203 0 320.5 -96.5t117.5 -256.5q0 -90 -57 -178q-66 -100 -180 -147v-4q129 -51 192 -117q98 -96 98 -252q0 -203 -176 -338q-164 -123 -379 -123 q-207 0 -336 105.5t-129 267.5zM293 346q0 -115 78 -190.5t219 -75.5q133 0 223 65q100 72 100 199q0 252 -432 334q-80 -43 -134 -137.5t-54 -194.5zM358 1145q0 -242 383 -307q162 72 162 305q0 98 -72.5 159.5t-195.5 61.5q-119 0 -198 -64.5t-79 -154.5z" />
<glyph unicode="9" d="M76 123q0 139 123 139q74 0 102 -65q20 -68 43 -136q20 -51 127 -51q141 0 258 176q111 168 154 424l-4 2q-131 -180 -369 -180q-160 0 -281 133q-127 141 -127 353q0 205 115 354q145 193 426 192q207 0 340 -161q141 -172 141 -459q0 -406 -225 -686 q-217 -272 -520 -273q-162 0 -242 84q-61 63 -61 154zM350 920q0 -352 275 -353q106 0 182 92q88 107 88 306q0 182 -82 290q-76 100 -180 101q-160 0 -232 -156q-51 -111 -51 -280z" />
<glyph unicode=":" horiz-adv-x="688" d="M193 913q0 63 45 108.5t106 45.5t106.5 -45.5t45.5 -108.5t-45 -108t-107 -45q-61 0 -106 45t-45 108zM195 133q0 63 44 107.5t105 44.5t105.5 -44.5t44.5 -107.5t-44 -106t-106 -43q-61 0 -105 43t-44 106z" />
<glyph unicode=";" horiz-adv-x="688" d="M125 -289q113 70 166 121q76 78 88 172h-49q-154 0 -154 146q0 51 38 93t99 42q187 0 187 -238q0 -133 -111 -264q-78 -92 -190 -162zM190 913q0 63 45.5 108.5t106.5 45.5t106.5 -45.5t45.5 -108.5t-45.5 -108t-106.5 -45t-106.5 45t-45.5 108z" />
<glyph unicode="&#x3c;" horiz-adv-x="1363" d="M190 512v156l969 456v-166l-801 -368l801 -369v-166z" />
<glyph unicode="=" horiz-adv-x="1363" d="M199 313v150h966v-150h-966zM199 715v149h966v-149h-966z" />
<glyph unicode="&#x3e;" horiz-adv-x="1363" d="M205 55v166l801 369l-801 368v166l969 -456v-156z" />
<glyph unicode="?" horiz-adv-x="983" d="M96 1309q0 92 97 166q106 80 268 79q217 0 338 -127q108 -117 108 -305q0 -190 -126 -319t-324 -156v-221h-113v405q160 23 238 74q113 78 112 244q0 297 -239 297q-84 0 -125 -41q20 -68 20 -119q0 -57 -49 -90q-37 -25 -86 -25q-119 0 -119 138zM252 133q0 63 44 106.5 t105 43.5q63 0 106.5 -43.5t43.5 -106.5t-43 -107t-107 -44q-61 0 -105 44t-44 107z" />
<glyph unicode="@" horiz-adv-x="2181" d="M248 459q0 401 276 694q293 309 733 309q336 0 525 -209q170 -188 170 -471q0 -289 -135 -489q-143 -209 -367 -209q-211 0 -236 188q-119 -186 -266 -186q-119 0 -190 74q-88 86 -88 258q0 186 145 387q172 240 412 239q135 0 176 -118l37 104h205l-224 -629 q-27 -76 -26 -120q0 -96 75 -97q143 0 254 174q113 182 113 437q0 240 -154 395q-162 164 -436 164q-311 0 -540 -234q-248 -254 -248 -651q0 -336 200 -537q186 -186 469 -186q530 0 768 414l76 -47q-125 -238 -345 -365t-499 -127q-360 0 -608 211q-272 233 -272 627z M899 403q0 -193 78 -192q139 0 248 201l131 379q-25 156 -148 155q-127 0 -223 -188q-86 -172 -86 -355z" />
<glyph unicode="A" horiz-adv-x="1484" d="M-49 0v94q96 4 153 39q80 47 121 150q162 422 484 1261h102l489 -1306q27 -72 92.5 -106t147.5 -38v-94h-676v94q211 12 211 60q0 25 -10 51l-117 309h-516q-47 -129 -70 -205q-25 -84 -24 -121q0 -82 235 -94v-94h-622zM475 627h430l-215 575z" />
<glyph unicode="B" horiz-adv-x="1417" d="M80 0v94q100 6 158 27q66 25 65 106v1051q0 84 -65 111q-90 35 -150 38v95h741q152 0 267 -64q147 -82 147 -241q0 -172 -104 -267q-78 -70 -256 -123v-18q158 -16 274 -98q162 -112 162 -305q0 -197 -166 -310q-139 -96 -319 -96h-754zM545 229q18 -125 198 -125 q162 0 238 111q63 90 63 240q0 133 -86 215t-241 82q-102 0 -172 -4v-519zM545 858h121q305 0 305 305q0 256 -264 256q-88 0 -162 -6v-555z" />
<glyph unicode="C" horiz-adv-x="1396" d="M80 743q0 344 213 575.5t536 231.5q88 0 181.5 -32.5t140.5 -79.5l57 106h101l8 -569h-92q-147 465 -459 465q-176 0 -291 -162q-127 -182 -127 -516q0 -274 142.5 -453.5t361.5 -179.5q174 0 276 88q78 68 152 225l94 -55q-176 -418 -588 -418q-319 0 -512.5 212 t-193.5 562z" />
<glyph unicode="D" horiz-adv-x="1644" d="M80 0v94q109 0 158 19q66 25 65 108v1061q0 80 -64.5 110.5t-150.5 34.5v95h684q289 0 508 -158q285 -204 285 -612q0 -365 -260 -570q-229 -182 -570 -182h-655zM545 276q23 -170 221 -170q258 0 393 181q129 170 129 467q0 293 -160.5 478t-420.5 185q-72 0 -162 -4 v-1137z" />
<glyph unicode="E" horiz-adv-x="1411" d="M70 0v94q119 6 168 25q66 25 65 106v1057q0 80 -65 107q-88 35 -168 38v95h1181v-381h-92q-18 78 -88 164q-74 94 -139.5 104t-175.5 10h-211v-577h149q113 0 178 65q51 51 66 193h92v-633h-92q-2 47 -24.5 113.5t-41.5 89.5q-56 67 -175 67h-3h-149v-434 q0 -131 41 -162.5t202 -31.5q270 0 316.5 46t103.5 152q51 94 72 154h86l-29 -461h-1267z" />
<glyph unicode="F" horiz-adv-x="1296" d="M68 0v94q139 8 168 19q68 27 67 106v1063q0 80 -67 107q-84 35 -168 38v95h1196v-400h-90q-18 80 -89 174q-76 102 -139 111q-78 10 -178 10h-223v-594h151q123 0 191 68q51 51 65 188h90v-635h-90q-4 49 -24.5 116t-40.5 89q-63 68 -191 68h-151v-486q0 -76 65 -106 q53 -25 162 -31v-94h-704z" />
<glyph unicode="G" horiz-adv-x="1585" d="M80 725q0 348 227.5 586.5t571.5 238.5q92 0 190 -31.5t150 -78.5l61 104h94l12 -565h-92q-143 461 -493 461q-193 0 -316 -180q-131 -193 -131 -517q0 -281 131 -470t328 -189q168 0 258 67.5t90 180.5v100q0 102 -69 131q-51 23 -213 31v96h720v-94q-55 -4 -149 -27 q-63 -31 -64 -116v-492l-75 -12l-86 125q-254 -104 -496 -105q-258 0 -444 195q-205 213 -205 561z" />
<glyph unicode="H" horiz-adv-x="1787" d="M88 0v94q119 6 150 19q66 27 65 108v1063q0 78 -65 107q-74 33 -150 36v95h676v-95q-98 -6 -154 -24q-66 -23 -65 -109v-442h698v432q0 78 -65 107q-72 33 -154 36v95h676v-95q-92 -4 -150 -24q-66 -23 -65 -109v-1063q0 -80 65 -108q55 -25 150 -29v-94h-676v94 q123 6 154 19q66 27 65 108v516h-698v-506q0 -78 65 -108q49 -23 154 -29v-94h-676z" />
<glyph unicode="I" horiz-adv-x="856" d="M86 0v94q129 8 156 19q66 29 65 106v1065q0 76 -65 107q-57 27 -156 36v95h684v-95q-57 -6 -156 -26q-66 -23 -65 -107v-1065q0 -78 65 -106q51 -23 156 -29v-94h-684z" />
<glyph unicode="J" horiz-adv-x="1050" d="M-2 199q0 72 43 122t115 50q70 0 108.5 -43t38.5 -109q0 -92 -98 -145v-13q8 -2 35 -2q182 0 249 129q49 94 50 301v795q0 78 -66 107q-72 33 -172 36v95h709v-95q-109 -6 -162 -24q-66 -23 -66 -109v-891q0 -147 -125 -284q-143 -158 -360 -158q-154 0 -236 82 q-63 63 -63 156z" />
<glyph unicode="K" horiz-adv-x="1556" d="M88 0v94q119 6 148 19q68 27 67 108v1061q0 78 -67 109q-78 33 -148 36v95h676v-95q-86 -4 -152.5 -25.5t-66.5 -107.5v-510h10q209 176 353.5 345t144.5 243q0 47 -154 55v95h623v-95q-86 -4 -133 -14q-113 -25 -164 -82q-106 -125 -213 -246.5t-224 -228.5 q195 -207 492 -586q80 -102 190 -147q57 -23 160 -29v-94h-780v94q190 8 190 72q0 51 -182 268q-141 166 -283 309h-30v-512q0 -76 65 -106q55 -27 152 -31v-94h-674z" />
<glyph unicode="L" horiz-adv-x="1329" d="M84 0v94q106 6 154 23q66 23 65 110v1053q0 80 -65 109q-82 35 -154 38v95h682v-95q-76 -4 -156 -28q-66 -20 -65 -109v-987q0 -139 35.5 -170t207.5 -31q227 0 277 56q43 47 105.5 152.5t80.5 160.5h86l-32 -471h-1221z" />
<glyph unicode="M" horiz-adv-x="2045" d="M27 0v94q47 6 92 15q74 14 106 36q70 47 70 301v746q0 129 -63.5 180t-194.5 55v95h557l426 -1129l346 910q41 104 61 219h539v-95q-98 -6 -158 -24q-66 -20 -65 -107v-1067q0 -74 65 -106q47 -23 160 -29v-94h-717v94q154 8 185 25q72 39 71 110v1149h-8 q-20 -98 -82 -256l-432 -1097h-76q-33 102 -108 305l-307 819q-47 125 -72 250h-6v-942q0 -238 71 -299q25 -20 105 -43q68 -18 104 -21v-94h-669z" />
<glyph unicode="N" horiz-adv-x="1683" d="M8 1427v95h469l842 -1137v686q0 244 -72 293q-29 18 -103.5 39.5t-113.5 23.5v95h676v-95q-33 -2 -96 -18q-72 -18 -99 -35q-71 -44 -71 -284v-7v-1097h-109l-792 1071q-76 100 -123 207v-803q0 -240 71 -299q25 -20 111 -45q74 -20 109 -23v-94h-680v94q31 2 105.5 22.5 t92.5 35.5q70 49 70 297v725q0 139 -92 196q-82 53 -195 57z" />
<glyph unicode="O" horiz-adv-x="1624" d="M82 745q0 362 203 580q215 229 528 229t530 -229q199 -211 199 -555q0 -373 -215 -588t-522 -215q-293 0 -500 207q-223 223 -223 571zM356 756q0 -295 111 -477q123 -199 346 -199t344 199q111 180 111 485q0 287 -101 465q-121 213 -354 213q-215 0 -336 -181.5 t-121 -504.5z" />
<glyph unicode="P" horiz-adv-x="1312" d="M76 1427v95h719q195 0 321 -103q131 -108 131 -280q0 -231 -170 -359q-149 -112 -373 -112h-4h-155v-443q0 -84 67 -110q41 -16 170 -21v-94h-698v94q117 6 154 21q66 27 65 110v1063q0 88 -65 113q-55 20 -162 26zM545 776h78q201 0 290 119q60 79 60 192q0 139 -64 224 q-80 106 -245 106h-119v-641z" />
<glyph unicode="Q" horiz-adv-x="1622" d="M82 743q0 360 203 578q219 233 528 233q307 0 528 -233q199 -209 199 -551q0 -438 -356 -666q53 -262 299 -262q111 0 215 187l88 -68q-193 -289 -447 -289q-291 0 -372 324q-86 -29 -162 -29q-293 0 -500 207q-223 223 -223 569zM356 754q0 -334 103 -486 q100 252 350 252q119 0 213 -84q88 -80 127 -211q117 179 117 537q0 287 -101 467q-117 213 -352 213q-219 0 -338 -182.5t-119 -505.5zM528 195q109 -121 285 -121q53 0 141 16q-18 297 -227 297q-47 0 -98 -37q-72 -51 -101 -155z" />
<glyph unicode="R" horiz-adv-x="1523" d="M84 0v94q115 6 154 21q66 25 65 108v1069q0 88 -67.5 109.5t-151.5 25.5v95h743q180 0 301 -82q139 -94 140 -271q0 -166 -111 -260q-90 -76 -285 -127v-20q256 -57 347 -287q25 -66 81 -239q35 -104 134 -125q63 -12 131 -17v-94h-478q-47 246 -120 434 q-47 119 -141.5 199t-202.5 80h-78v-490q0 -84 67 -108q37 -14 162 -21v-94h-690zM545 821h110q143 0 240.5 90.5t97.5 233.5q0 135 -86 207q-77 65 -203 65h-4h-155v-596z" />
<glyph unicode="S" horiz-adv-x="1193" d="M92 532h92q166 -446 459 -446q256 0 256 256q0 86 -51 159.5t-142.5 110.5t-304.5 129q-266 125 -266 396q0 178 127 294.5t316 116.5q178 0 313 -100l70 94h83l15 -536h-94q-70 213 -152 307q-102 121 -268 121q-66 0 -125 -41q-82 -55 -82 -160q0 -166 174 -262 q59 -33 147 -68q106 -41 144 -59q160 -78 227 -152q88 -98 88 -256q0 -205 -141 -334t-356 -129q-238 0 -361 105l-67 -98h-87z" />
<glyph unicode="T" horiz-adv-x="1363" d="M16 1102v420h1332v-420h-86q-20 84 -91 186q-78 115 -141 125q-51 8 -170 8h-57v-1181q0 -82 65 -109q78 -31 176 -37v-94h-725v94q127 6 177 25q66 25 65 110v1192h-57q-119 0 -170 -8q-61 -10 -141 -125q-72 -104 -91 -186h-86z" />
<glyph unicode="U" horiz-adv-x="1673" d="M59 1427v95h678v-95q-94 -6 -153 -26q-66 -23 -66 -109v-796q0 -381 367 -381q225 0 325 135q70 96 70 248v575q0 246 -72 293q-86 55 -217 61v95h678v-95q-127 -6 -196.5 -51t-69.5 -289v-645q0 -242 -195 -370q-156 -104 -362 -105q-268 0 -426 131q-145 121 -146 301 v883q0 76 -65 111q-55 29 -150 34z" />
<glyph unicode="V" horiz-adv-x="1464" d="M-45 1427v95h678v-95q-201 -10 -201 -57q0 -20 10 -53q72 -225 338 -975q215 522 318 799q49 131 49 194q0 78 -240 92v95h615v-95q-78 -4 -144 -43q-74 -43 -110 -135q-174 -428 -516 -1265h-105l-448 1300q-23 66 -97 107q-57 33 -147 36z" />
<glyph unicode="W" horiz-adv-x="2121" d="M-35 1427v95h666v-95q-207 -12 -207 -55q0 -18 10 -55q96 -352 271 -930l292 860q0 109 -75 146q-59 29 -170 34v95h669v-95q-198 -10 -198 -55q0 -29 8 -55q88 -311 282 -922q125 365 236 744l6 18q37 131 37 176q0 80 -221 94v95h602v-95q-74 -4 -143 -41 q-76 -41 -111 -137q-137 -408 -430 -1265h-100q-213 741 -328 1118l-385 -1118h-101l-382 1300q-20 70 -84 107q-55 33 -144 36z" />
<glyph unicode="X" horiz-adv-x="1564" d="M-6 0v94q113 6 153 27q98 49 175 149q106 141 348 475l-348 510q-59 88 -156 146q-43 20 -166 26v95h784v-95q-111 -6 -141 -12q-76 -14 -76 -61q0 -59 254 -430q276 365 277 430q0 43 -60 59q-35 10 -127 14v95h621v-95q-111 -6 -154 -26q-96 -45 -176 -150 q-100 -131 -313 -426l383 -555q68 -98 155 -153q25 -16 160 -23v-94h-778v94q115 6 141 10q76 16 76 64q0 57 -285 475q-313 -412 -313 -475q0 -47 59 -62q29 -8 125 -12v-94h-618z" />
<glyph unicode="Y" horiz-adv-x="1341" d="M-66 1427v95h699v-95q-109 -6 -133 -10q-76 -10 -76 -41q0 -43 309 -620q315 522 316 592q0 68 -203 79v95h569v-95q-68 -6 -136.5 -41.5t-117.5 -109.5q-100 -154 -311 -545q-74 -137 -74 -242v-251q0 -78 66 -109q45 -20 174 -35v-94h-721v94q74 8 174 25q66 25 66 108 v340q0 53 -54 162q-143 293 -264 518q-74 137 -190 166q-41 12 -93 14z" />
<glyph unicode="Z" horiz-adv-x="1318" d="M6 0v45l965 1372h-330q-129 0 -172 -10q-80 -18 -174 -135q-82 -100 -119 -197h-84l47 447h1141v-47l-963 -1371h373q246 0 311 58q139 123 222 332h84l-52 -494h-1249z" />
<glyph unicode="[" horiz-adv-x="868" d="M166 -311v1833h608v-115h-405v-1604h405v-114h-608z" />
<glyph unicode="\" horiz-adv-x="878" d="M82 1556l145 33l639 -1927l-139 -33z" />
<glyph unicode="]" horiz-adv-x="868" d="M94 -197h406v1604h-406v115h608v-1833h-608v114z" />
<glyph unicode="^" horiz-adv-x="1363" d="M147 618l457 875h156l457 -875h-166l-369 719l-369 -719h-166z" />
<glyph unicode="_" d="M-10 -106h1249v-117h-1249v117z" />
<glyph unicode="`" horiz-adv-x="681" d="M80 1497q0 43 28.5 74t79.5 31q57 0 129 -66q72 -57 297 -254l-36 -61q-154 61 -385 155q-113 47 -113 121z" />
<glyph unicode="a" horiz-adv-x="1130" d="M84 244q0 236 227 325q143 49 383 150v98q0 66 -30 123q-49 92 -160 92q-96 0 -148 -55q0 -16 10.5 -57t10.5 -72q0 -109 -135 -109q-109 0 -109 138q0 102 129 180q117 73 252 73h4q195 0 281 -59q112 -79 112 -293q0 -134 -6 -328q-6 -204 -6 -229q0 -96 90 -96 q68 0 72 168h90q-12 -313 -254 -313q-150 0 -201 157h-8q-129 -162 -338 -162q-119 0 -192.5 73t-73.5 196zM313 281q0 -164 150 -164q80 0 137 39q35 25 86 88l10 358q-195 -59 -276 -121q-106 -78 -107 -200z" />
<glyph unicode="b" horiz-adv-x="1245" d="M-16 1485v86l401 26l14 -18v-598l9 -2q130 151 295 151h2q199 0 329 -155q135 -162 135 -424q0 -248 -151.5 -414t-355.5 -166q-166 0 -328 103l-72 -129l-84 16q8 123 8 428v932q0 94 -61 131q-37 23 -141 33zM399 274q68 -196 242 -196h2q133 0 210 121t77 348 q0 188 -70 307q-80 133 -231 133q-125 0 -230 -119v-594z" />
<glyph unicode="c" horiz-adv-x="1017" d="M76 557q0 238 139 401q147 172 377 172q172 0 272 -83q94 -78 94 -193q0 -162 -133 -162t-133 123q0 59 19.5 95t19.5 51q-12 65 -139 65h-4q-115 0 -189 -102q-88 -123 -88 -357q0 -197 84 -319q90 -129 238 -129q102 0 176 53q63 47 127 156l82 -72q-68 -123 -182 -199 q-123 -82 -258 -82q-240 0 -373 162q-129 156 -129 420z" />
<glyph unicode="d" horiz-adv-x="1282" d="M76 565q0 242 155 406q149 159 354 159h3q150 0 266 -71v250q0 88 -54.5 129t-201.5 49v86l455 24l14 -14v-1335q0 -70 59 -113q27 -18 134 -24v-86l-388 -27l-16 14v109l-8 2q-133 -150 -293 -150q-217 0 -348 159t-131 433zM315 541q0 -180 70 -295q84 -137 246 -137 q72 0 131 41q35 24 92 90v598q-59 190 -248 190q-131 0 -211 -132t-80 -355z" />
<glyph unicode="e" horiz-adv-x="1069" d="M76 559q0 231 131 397q137 174 356 174q223 0 338 -139q100 -123 100 -332v-71h-694q0 -467 342 -467q106 0 176 55q55 43 119 152l82 -68q-61 -127 -176 -205q-121 -80 -264 -80q-250 0 -385 168q-125 156 -125 416zM307 690l465 4q0 334 -211 334q-106 0 -177 -93 t-77 -245z" />
<glyph unicode="f" horiz-adv-x="731" d="M18 948v125h222q0 242 116.5 387.5t321.5 145.5q192 -1 192 -142q0 -55 -33.5 -95t-91.5 -40q-133 0 -133 127q0 16 15 51q-174 0 -174 -379v-55h270v-125h-272v-731q0 -78 61 -100q43 -20 145 -27v-90h-579v90q63 4 98 12q61 23 62 105v741h-220z" />
<glyph unicode="g" horiz-adv-x="1150" d="M43 -141q0 217 313 231v14q-198 55 -198 186q0 122 172 173v10q-225 88 -226 318q0 150 118 246t288 96q94 0 203.5 -36t103.5 -36q102 72 225 72q43 0 78 -34t35 -83q0 -133 -100 -133q-98 0 -99 139q-100 0 -131 -21v-4q84 -94 84 -219q0 -147 -121 -246 q-113 -94 -264 -94h-129q-72 -29 -71 -80q0 -68 75 -86q18 -4 158 -10q104 -4 256 -10q111 -6 191 -82q92 -84 92 -219q0 -162 -146 -260q-154 -106 -420 -107q-487 0 -487 275zM248 -139q0 -70 76 -117q86 -53 245 -53q152 0 244 61.5t92 157.5q0 106 -112 137 q-172 14 -344 14q-201 -39 -201 -200zM328 791q0 -113 47 -184.5t129 -71.5q92 0 143 77q43 68 43 170q0 248 -186 248q-176 0 -176 -239z" />
<glyph unicode="h" horiz-adv-x="1310" d="M10 1485v88l404 24l14 -14v-645h6q98 100 139 129q96 63 224 63q305 0 305 -362v-553q0 -74 59 -102q41 -20 99 -23v-90h-541v90q70 4 104 14q61 18 62 101v532q0 115 -52.5 180.5t-127.5 65.5q-106 0 -191 -68q-57 -47 -86 -106v-590q0 -74 61 -104q45 -20 107 -25v-90 h-541v90q63 4 101 14q59 18 59 101v1116q0 92 -59 135q-33 23 -146 29z" />
<glyph unicode="i" horiz-adv-x="669" d="M47 999v88l393 27l15 -16v-877q0 -78 61 -104q55 -25 98 -27v-90h-534v90q68 4 100 14q59 20 60 103v641q0 74 -60 117q-43 31 -133 34zM184 1452q0 63 43 106.5t101 43.5q61 0 104 -41.5t43 -98.5q0 -63 -44 -108t-103 -45q-57 0 -100.5 42t-43.5 101z" />
<glyph unicode="j" horiz-adv-x="655" d="M-160 -270q0 53 32 92t87 39q139 0 139 -127q0 -20 -6 -51q170 0 170 378v779q0 80 -59 123q-49 35 -180 41v86l442 24l14 -16v-957q0 -260 -121.5 -408.5t-324.5 -148.5q-92 0 -142.5 43t-50.5 103zM203 1452q0 63 43 106.5t100 43.5q61 0 104.5 -41.5t43.5 -98.5 q0 -63 -44 -108t-104 -45q-57 0 -100 42t-43 101z" />
<glyph unicode="k" horiz-adv-x="1210" d="M10 1485v88l402 24l16 -16v-1001q205 201 305 323q31 31 31 49q0 49 -121 62v88h494v-84q-193 -57 -277 -137q-53 -51 -198 -201q137 -66 231 -215q8 -12 149 -287q20 -41 97 -74q37 -16 90 -16v-88h-361q-49 168 -143 324q-115 190 -215 190q-39 0 -82 -33v-264 q0 -76 61 -100q55 -20 105 -27v-90h-539v90q35 2 97.5 17.5t62.5 97.5v1118q0 90 -65 131q-41 25 -140 31z" />
<glyph unicode="l" horiz-adv-x="651" d="M8 1483v88l410 26l16 -18v-1360q0 -78 60 -104q51 -23 100 -25v-90h-535v90q63 4 101 14q61 18 61 101v1108q-10 96 -60 130t-153 40z" />
<glyph unicode="m" horiz-adv-x="1953" d="M59 999v88l373 27l17 -16v-164h6q111 113 135 131q91 65 211 65h4q102 0 179 -56t110 -146q117 117 143 135q91 67 211 67h4q297 0 297 -376v-539q0 -80 68 -106q39 -16 96 -19v-90h-535v90q31 2 95 12q59 18 59 103v532q0 117 -47 179.5t-123 62.5q-172 0 -262 -172 v-592q0 -117 160 -125v-90h-529v90q31 2 90 12q61 18 62 103v532q0 115 -48.5 178.5t-121.5 63.5q-168 0 -262 -174v-588q0 -74 59 -102q45 -23 102 -25v-90h-536v90q35 2 98 12q61 18 62 103v649q-10 78 -62 113q-43 29 -115 32z" />
<glyph unicode="n" horiz-adv-x="1329" d="M66 1001v89l370 24l15 -14v-162h4q111 109 139 127q93 65 217 65h4q154 0 231.5 -97t77.5 -267v-551q0 -76 60 -100q41 -23 98 -25v-90h-541v90q74 4 105 12q61 23 61 105v530q0 115 -53 183q-51 61 -127 61q-109 0 -190 -66q-59 -47 -86 -108v-590q0 -72 61 -100 q41 -23 106 -27v-90h-542v90q63 4 98 12q61 23 62 105v643q0 82 -62 123q-37 25 -108 28z" />
<glyph unicode="o" horiz-adv-x="1189" d="M219.5 970q145.5 163 380.5 163q233 0 374.5 -160t141.5 -408q0 -260 -137 -422q-145 -172 -393 -172q-213 0 -357 154q-155 161 -155 421q0 261 145.5 424zM311 567q0 -217 64 -344q75 -149 221 -149h2q141 0 215 145q66 129 66 342q0 469 -281 469q-158 0 -231 -153 q-55 -119 -56 -310z" />
<glyph unicode="p" horiz-adv-x="1275" d="M35 -326q76 4 123 19q59 18 59 106v1061q-10 82 -59 117q-37 27 -123 31v79l379 27l16 -14v-123l8 -2q142 155 295 155h2q199 0 330 -155q135 -162 135 -422q0 -242 -153 -403q-147 -154 -353 -154q-154 0 -254 76h-8v-260q0 -80 62 -105q72 -29 161 -33v-90h-620v90z M432 274q61 -176 244 -176q131 0 208 120t77 339q0 178 -66 295q-80 139 -236 139q-121 0 -227 -127v-590z" />
<glyph unicode="q" horiz-adv-x="1249" d="M76 573q0 240 157 402q151 155 356 155h3q121 0 221 -45q57 -35 115 -67l82 143l75 -8q-16 -369 -16 -416v-919q0 -84 59 -113q45 -23 134 -31v-90h-603v90q94 4 134 17q61 18 61 106v332l-8 2q-123 -137 -293 -137q-205 0 -338 153q-139 162 -139 426zM315 549 q0 -178 68 -289q82 -131 246 -131q112 0 225 117v602q-63 178 -250 178q-129 0 -209 -130t-80 -347z" />
<glyph unicode="r" horiz-adv-x="917" d="M63 1001v89l371 24l17 -16v-162h4q141 188 299 188q68 0 113.5 -46.5t45.5 -112.5q0 -68 -36.5 -117t-98.5 -49q-121 0 -121 110q0 10 8.5 40t8.5 32q-133 0 -223 -172v-590q0 -76 61 -102q49 -23 147 -27v-90h-583v90q66 4 98 14q61 20 62 103v641q0 80 -62 123 q-33 23 -111 30z" />
<glyph unicode="s" horiz-adv-x="940" d="M78 385h96q23 -104 98 -197q91 -110 201 -110h2q207 0 207 170q0 82 -64 133q-55 47 -192 88q-322 98 -322 342q0 135 99.5 227t253.5 92q141 0 227 -63l18 66h89l16 -359h-96q-18 106 -80 174q-70 74 -176 74q-76 0 -125 -38t-49 -93q0 -88 59 -135q47 -37 197 -88 q158 -55 229 -123q92 -87 92 -226q0 -156 -114.5 -252t-278.5 -96q-78 0 -158 33q-72 29 -104 64l-23 -76h-92z" />
<glyph unicode="t" horiz-adv-x="788" d="M6 965v125h209v305h205v-305h305v-125h-303v-635q0 -102 33.5 -148.5t119.5 -46.5q96 0 113 160h94q-12 -139 -77 -221q-78 -94 -216 -94q-279 0 -278 315v670h-205z" />
<glyph unicode="u" horiz-adv-x="1292" d="M33 999v88l375 27l14 -16v-744q0 -115 48 -177t124 -62q164 0 266 176v571q0 76 -57 115q-27 18 -148 22v88l406 27l14 -16v-852q0 -70 60 -111q27 -18 108 -22v-88l-364 -27l-17 18v144h-6q-96 -100 -137 -125q-90 -59 -217 -60q-297 0 -297 377v500q0 74 -60 117 q-39 27 -112 30z" />
<glyph unicode="v" horiz-adv-x="1089" d="M-18 1012v90h497v-94q-117 -8 -117 -52q2 -14 15 -47q117 -332 229 -622q123 313 219 577q10 29 11 66q0 33 -56 59q-43 20 -82 25v88h422v-86q-127 -25 -170 -131q-80 -203 -258 -649q-47 -115 -86 -250h-106l-353 913q-37 92 -165 113z" />
<glyph unicode="w" horiz-adv-x="1685" d="M-8 1012v90h483v-96q-106 -4 -106 -48q0 -14 12 -49q68 -182 225 -606q100 258 201 561q-4 16 -27 64q-31 57 -65 71q-10 4 -78 13v90h463v-92q-102 -8 -103 -45q0 -18 13 -56q129 -381 215 -612q59 156 194 580q10 33 11 57q0 37 -54 61q-41 18 -78 19v88h422v-88 q-51 -6 -102 -43q-57 -41 -78 -94q-68 -190 -237 -646q-43 -111 -86 -245h-89l-262 739q-57 -162 -178 -494q-29 -72 -88 -245h-94q-111 295 -348 911q-18 45 -66.5 77t-99.5 38z" />
<glyph unicode="x" horiz-adv-x="1077" d="M0 0v84q152 59 207 129q18 23 229 326q-96 152 -241 381q-59 92 -172 92v90h462v-90q-86 0 -86 -23q0 -14 19 -47q57 -100 157 -260q72 102 150 236q10 14 10 40q0 31 -86 54l-8 2v88h408v-86q-152 -41 -213 -119q-49 -72 -205 -297q86 -137 258 -405q33 -49 66.5 -71 t111.5 -36v-88h-487v88q104 10 104 39q0 12 -31 68q-68 121 -159 260q-51 -76 -175 -254q-23 -33 -22 -56q0 -49 115 -59v-86h-412z" />
<glyph unicode="y" horiz-adv-x="1081" d="M-20 1010v92h491v-96q-111 -4 -111 -50q4 -16 15 -47q68 -184 233 -602q6 16 213 557q14 37 15 66q0 31 -56 57q-39 18 -80 27v88h418v-86q-39 -8 -90 -43q-61 -41 -80 -88q-78 -205 -250 -623q-174 -406 -235 -500q-117 -178 -285 -178q-74 0 -119 39q-51 41 -51 119 q0 49 37 90q39 49 98 49q121 0 121 -123v-41q59 12 133 123q57 86 97 185q-96 246 -349 874q-39 94 -165 111z" />
<glyph unicode="z" horiz-adv-x="1001" d="M57 0v70l600 919h-215q-104 -4 -153 -24q-70 -29 -105 -201h-88v338h838v-62l-608 -934q74 -2 180 -2q37 0 192 7q63 2 101.5 93t58.5 175h84v-379h-885z" />
<glyph unicode="{" horiz-adv-x="931" d="M49 530v170q174 14 242 56q88 53 88 190q0 31 -17.5 127t-17.5 144q0 209 131 294q115 74 365 74v-110q-141 -6 -195 -35q-92 -47 -92 -183q0 -33 10 -119.5t10 -115.5q0 -205 -102 -291q-70 -57 -258 -96v-41q186 -37 258 -96q102 -86 102 -289q0 -31 -10 -120t-10 -118 q0 -135 92 -182q53 -27 195 -35v-108q-250 0 -365 73q-131 84 -131 295q0 37 17.5 136.5t17.5 132.5q0 137 -88 192q-70 43 -242 55z" />
<glyph unicode="|" horiz-adv-x="714" d="M287 -369v1952h141v-1952h-141z" />
<glyph unicode="}" horiz-adv-x="931" d="M92 -246q141 8 195 35q92 47 92 182q0 29 -10.5 118t-10.5 120q0 203 105 289q70 59 256 96v41q-188 39 -256 96q-104 86 -105 291q0 29 10.5 116t10.5 119q0 135 -92 183q-53 29 -195 35v110q250 0 365 -74q131 -86 131 -294q0 -47 -17.5 -143.5t-17.5 -127.5 q0 -137 88 -190q68 -41 242 -56v-170q-172 -12 -242 -55q-88 -55 -88 -192q0 -33 17.5 -132.5t17.5 -136.5q0 -211 -131 -295q-115 -74 -365 -73v108z" />
<glyph unicode="~" horiz-adv-x="1363" d="M131 453q23 139 115 254q100 125 223 124q109 0 264 -106q100 -70 105 -72q57 -33 100 -32q84 0 131 65q23 29 72 150l92 -25q-27 -139 -115 -252q-100 -127 -223 -127q-119 0 -263.5 105.5t-205.5 105.5q-82 0 -129 -63q-31 -39 -74 -152z" />
<glyph unicode="&#xa1;" horiz-adv-x="694" d="M205 1409q0 63 43 107.5t106 44.5q61 0 105.5 -44.5t44.5 -107.5t-44 -107.5t-106 -44.5q-63 0 -106 44.5t-43 107.5zM209 137q0 41 37 340q43 365 63 588h94q16 -231 60 -586q35 -303 35 -342q0 -66 -41 -110.5t-103 -44.5q-61 0 -103 45t-42 110z" />
<glyph unicode="&#xa2;" d="M160 653q0 209 131 367t338 182l-2 283h110l-2 -283q139 -12 234 -65q123 -72 123 -195q0 -70 -35 -110.5t-92 -40.5q-43 0 -79 31.5t-36 86.5q0 47 14 80q14 27 27 55q-43 43 -156 56v-871q184 8 293 203l80 -57q-131 -236 -373 -273l2 -329h-110l2 325 q-190 12 -312 125q-158 145 -157 430zM383 664q0 -346 246 -424v856q-106 -25 -170 -121q-76 -115 -76 -311z" />
<glyph unicode="&#xa3;" d="M-2 111q0 121 172 120q47 0 170 -30q35 76 35 186q0 102 -31 213h-264v111h250q-18 53 -37 104q-27 84 -27 178q0 201 123 342q137 158 371 158q172 0 272 -96q92 -88 92 -230q0 -74 -32 -127q-39 -63 -115 -63q-139 0 -139 137q0 59 45 96q29 18 57 37q0 49 -37 88 q-49 55 -147 56q-96 0 -164 -56q-92 -78 -92 -239q0 -47 27.5 -190.5t27.5 -194.5h334v-111h-336q0 -139 -16 -209q-27 -127 -115 -215q104 -35 299 -35q227 0 305 123q29 47 47 201l109 -16q-45 -508 -453 -508q-143 0 -381 147q-113 -102 -205 -102q-145 0 -145 125z" />
<glyph unicode="&#xa4;" d="M23 487v111h163q-2 18 -2 98q0 14 2 45v39h-163v111h172q35 248 179 410.5t359 162.5q205 0 311 -102q88 -84 89 -207q0 -59 -31 -102q-37 -53 -107 -54q-66 0 -102.5 38t-36.5 102q0 41 23 80q18 29 34 55q-8 25 -45 49q-55 33 -143 33q-117 0 -197 -105 q-96 -123 -112 -360h387v-111h-397v-182h331v-111h-319q43 -369 317 -368q121 0 195 74q61 61 108 196l107 -43q-135 -377 -453 -377q-438 0 -495 518h-174z" />
<glyph unicode="&#xa5;" d="M2 1333v94h602v-94q-92 -6 -106 -8q-59 -10 -60 -41q0 -39 240 -536q244 459 244 509q0 41 -52 60q-27 8 -114 16v94h483v-94q-84 -12 -121 -37q-51 -35 -98 -102q-51 -76 -289 -545h377v-110h-387v-301q0 -82 61 -113q49 -25 160 -31v-94h-668v94q131 8 168 21 q66 25 66 112v312h-389v110h377l-246 514q-49 102 -113 140q-43 25 -135 30z" />
<glyph unicode="&#xa6;" horiz-adv-x="714" d="M287 -369v787h141v-787h-141zM287 811v772h141v-772h-141z" />
<glyph unicode="&#xa7;" d="M133 627q0 106 98 194q88 76 209 107q-127 137 -127 246q0 121 107.5 206.5t263.5 85.5q139 0 234 -73q84 -68 83 -152q0 -131 -137 -131q-55 0 -91 33t-36 74q0 25 15.5 55.5t15.5 48.5q0 45 -104 45q-78 0 -124 -42t-46 -107q0 -45 41 -95q10 -10 102 -100 q80 -68 293 -250q168 -149 168 -309q0 -106 -99 -195q-86 -76 -206 -106q70 -76 94 -123q31 -57 31 -125q0 -121 -105.5 -206t-261.5 -85q-145 0 -238.5 66.5t-93.5 160.5q0 55 37 92.5t100 37.5q57 0 97.5 -33t40.5 -74q0 -25 -15.5 -55.5t-15.5 -48.5q0 -45 108 -45 q76 0 121 40.5t45 106.5q0 47 -39 94q-16 20 -102 103q-82 68 -295 249q-168 150 -168 310zM332 664q0 -92 69 -156q117 -96 322 -277q176 62 176 195q0 92 -70 156q-121 102 -319 276q-178 -63 -178 -194z" />
<glyph unicode="&#xa8;" horiz-adv-x="681" d="M0 1432q0 55 37 95t88 40q57 0 94 -39t37 -88q0 -57 -37 -98.5t-94 -41.5q-51 0 -88 39t-37 93zM426 1432q0 55 37 95t90 40q55 0 92 -38t37 -89q0 -55 -37 -97.5t-92 -42.5q-53 0 -90 39t-37 93z" />
<glyph unicode="&#xa9;" horiz-adv-x="2052" d="M96 588q0 373 267.5 639t644.5 266q373 0 640 -266t267 -639q0 -375 -266.5 -642.5t-640.5 -267.5q-377 0 -644.5 266.5t-267.5 643.5zM207 588q0 -336 233.5 -572.5t567.5 -236.5t565 236.5t231 572.5q0 332 -232.5 567.5t-563.5 235.5q-334 0 -567.5 -235.5 t-233.5 -567.5zM516 582q0 217 150.5 360t382.5 143q125 0 215 -59l41 68h86v-398h-84q-47 143 -95 201q-74 90 -202 90q-109 0 -179 -94q-80 -106 -79 -301q0 -166 88 -268.5t221 -102.5q113 0 182 64q55 47 109 159l82 -38q-147 -311 -414 -312q-229 0 -366.5 132 t-137.5 356z" />
<glyph unicode="&#xaa;" horiz-adv-x="1558" d="M72 0v1417h1415v-1417h-1415z" />
<glyph unicode="&#xab;" horiz-adv-x="1314" d="M131 575q0 57 49 99l441 370l63 -61l-322 -408l322 -405l-61 -64l-437 367q-33 29 -41 39q-14 20 -14 63zM639 575q0 57 49 99l440 370l64 -61l-322 -408l322 -405l-62 -64l-436 367q-33 29 -41 39q-14 20 -14 63z" />
<glyph unicode="&#xac;" horiz-adv-x="1363" d="M150 557v148h1036v-648h-158v500h-878z" />
<glyph unicode="&#xad;" horiz-adv-x="696" d="M74 477v195h549v-195h-549z" />
<glyph unicode="&#xae;" horiz-adv-x="1441" d="M111 932q0 250 179 427t431 177q250 0 429 -178t179 -426q0 -250 -179 -429t-429 -179q-252 0 -431 179t-179 429zM199 932q0 -219 152.5 -375t369.5 -156t368.5 156t151.5 375q0 215 -152.5 370.5t-367.5 155.5q-217 0 -369.5 -154.5t-152.5 -371.5zM424 621v65 q51 0 80 8q18 6 18 31v451q0 23 -20.5 30.5t-77.5 12.5v63h342q88 0 145 -37q66 -43 66 -123q0 -119 -160 -168q100 -27 137 -112q16 -39 37 -107q10 -33 47 -43q23 -6 70 -6v-65h-234q-18 88 -57 193.5t-131 105.5h-33v-195q0 -25 19 -31q29 -8 82 -8v-65h-330zM653 991h43 q55 0 94 33t39 88q0 102 -112 102h-64v-223z" />
<glyph unicode="&#xaf;" horiz-adv-x="681" d="M2 1352v151h678v-151h-678z" />
<glyph unicode="&#xb0;" horiz-adv-x="1011" d="M125 1200q0 168 106.5 280.5t274.5 112.5q162 0 270 -96q121 -109 121 -295q0 -168 -110.5 -274.5t-280.5 -106.5q-160 0 -266 99q-115 104 -115 280zM307 1210q0 -127 54.5 -202.5t152.5 -75.5q84 0 142.5 71.5t58.5 194.5q0 133 -56.5 209t-150.5 76q-90 0 -145.5 -78 t-55.5 -195z" />
<glyph unicode="&#xb1;" horiz-adv-x="1363" d="M160 59v148h446v403h-446v148h446v454h152v-454h446v-148h-446v-403h446v-148h-1044z" />
<glyph unicode="&#xb4;" horiz-adv-x="681" d="M78 1282q111 92 297 254q72 66 129 66q51 0 79.5 -31t28.5 -74q0 -76 -112 -121q-84 -33 -385 -155z" />
<glyph unicode="&#xb6;" horiz-adv-x="1308" d="M92 1135q0 150 88 256q111 131 324 131h770v-99h-254v-1720h-113v1720h-180v-1720h-113v1055h-36q-485 0 -486 377z" />
<glyph unicode="&#xb7;" horiz-adv-x="614" d="M156 616q0 63 46 109.5t107 46.5q63 0 108.5 -46.5t45.5 -109.5t-45 -109t-109 -46q-61 0 -107 46t-46 109z" />
<glyph unicode="&#xb8;" horiz-adv-x="681" d="M168 -330q135 0 182 11q86 16 86 71q0 41 -45 49q-18 4 -108 4v201h82v-84q237 0 237 -137q0 -199 -434 -199v84z" />
<glyph unicode="&#xba;" horiz-adv-x="1726" d="M143 0v1409l1440 -694z" />
<glyph unicode="&#xbb;" horiz-adv-x="1314" d="M125 170l319 405l-319 408l63 61l439 -370q49 -42 49 -99q0 -43 -14 -63q-8 -10 -41 -39l-435 -367zM633 170l319 405l-319 408l63 61l439 -370q49 -42 49 -99q0 -43 -15 -63q-8 -10 -41 -39l-434 -367z" />
<glyph unicode="&#xbc;" horiz-adv-x="2150" d="M145 1370l29 68q98 -45 172 -45q104 0 238 69h53q-29 -152 -29 -252v-518q0 -47 47 -63q41 -18 138 -25v-88h-574v88q115 6 146 19q49 14 49 59v594q-41 -4 -72 -4q-59 0 -197 98zM403 -82l1248 1538l94 -72l-1245 -1538zM1059 102v107l538 571h105v-565h227v-113h-229 v-131q0 -51 37 -63q27 -10 108 -14v-84h-479v84q82 0 109 8q41 12 41 59v141h-457zM1196 215h317v342z" />
<glyph unicode="&#xbd;" horiz-adv-x="2150" d="M145 1370l29 68q98 -45 172 -45q104 0 238 69h53q-29 -152 -29 -252v-518q0 -47 47 -63q41 -18 138 -25v-88h-574v88q115 6 146 19q49 14 49 59v594q-41 -4 -72 -4q-59 0 -197 98zM387 -82l1247 1538l95 -72l-1246 -1538zM1249 -63q184 117 228 147q82 57 151 129 q111 115 111 291q0 158 -146 158q-143 0 -149 -97q2 -8 25.5 -35.5t23.5 -54.5q0 -106 -123 -106q-47 0 -75.5 34.5t-28.5 81.5q0 88 82 170q102 104 274 105q143 0 237.5 -78t94.5 -193q0 -156 -89 -251t-374 -238l-8 -27h336q61 0 149 177l72 -27l-111 -311h-680v125z" />
<glyph unicode="&#xbe;" horiz-adv-x="2150" d="M186 709q0 63 38 99t95 36q100 0 101 -90q0 -33 -35 -56.5t-35 -42.5q0 -76 144 -75q98 0 172.5 70.5t74.5 178.5q0 127 -108 127q-47 0 -121 -73l-59 102q152 86 190 119q74 63 74 145q0 119 -144 119q-53 0 -86.5 -20.5t-37.5 -40.5q0 -2 15 -29t15 -53 q0 -100 -110 -101q-49 0 -78 37q-23 31 -23 68q0 84 86 155q98 80 256 80t244 -80q68 -63 68 -135q0 -162 -260 -213v-8h22q100 0 170 -41q94 -55 94 -172q0 -154 -127 -243t-325 -89q-121 0 -209 58q-100 63 -101 168zM514 -82l1247 1538l94 -72l-1245 -1538zM1167 102v107 l539 571h104v-565h228v-113h-230v-131q0 -51 37 -63q27 -10 109 -14v-84h-479v84q86 0 108 8q41 14 41 59v141h-457zM1305 215h317v342z" />
<glyph unicode="&#xbf;" horiz-adv-x="983" d="M76 414q0 190 126 319t324 156v221h113v-405q-160 -23 -238 -74q-113 -78 -112 -244q0 -297 239 -297q84 0 125 41q-20 68 -20 119q0 57 49 90q37 25 86 25q119 -1 119 -138q0 -92 -96 -166q-106 -80 -269 -79q-217 0 -336 127q-111 117 -110 305zM432 1403q0 63 43 107 t107 44q61 0 105 -44t44 -107t-44 -106.5t-105 -43.5q-63 0 -106.5 43t-43.5 107z" />
<glyph unicode="&#xc0;" horiz-adv-x="1484" d="M-49 0v94q96 4 153 39q80 47 121 150q162 422 484 1261h102l489 -1306q27 -72 92.5 -106t147.5 -38v-94h-676v94q211 12 211 60q0 25 -10 51l-117 309h-516q-47 -129 -70 -205q-25 -84 -24 -121q0 -82 235 -94v-94h-622zM426 1876q0 41 28.5 72.5t73.5 31.5 q55 0 133 -58.5t322 -240.5l-31 -61l-409 139q-117 39 -117 117zM475 627h430l-215 575z" />
<glyph unicode="&#xc1;" horiz-adv-x="1484" d="M-49 0v94q96 4 153 39q80 47 121 150q162 422 484 1261h102l489 -1306q27 -72 92.5 -106t147.5 -38v-94h-676v94q211 12 211 60q0 25 -10 51l-117 309h-516q-47 -129 -70 -205q-25 -84 -24 -121q0 -82 235 -94v-94h-622zM475 627h430l-215 575zM526 1681l320 240 q80 59 135 59q45 0 73.5 -31.5t28.5 -72.5q0 -76 -116 -117l-410 -139z" />
<glyph unicode="&#xc2;" horiz-adv-x="1484" d="M-49 0v94q96 4 153 39q80 47 121 150q162 422 484 1261h102l489 -1306q27 -72 92.5 -106t147.5 -38v-94h-676v94q211 12 211 60q0 25 -10 51l-117 309h-516q-47 -129 -70 -205q-25 -84 -24 -121q0 -82 235 -94v-94h-622zM393 1604l264 307q27 31 42.5 39t60.5 8 q47 0 65 -10q6 -4 35 -37q47 -53 264 -309l-63 -35l-305 213l-303 -213zM475 627h430l-215 575z" />
<glyph unicode="&#xc3;" horiz-adv-x="1484" d="M-49 0v94q96 4 153 39q80 47 121 150q162 422 484 1261h102l489 -1306q27 -72 92.5 -106t147.5 -38v-94h-676v94q211 12 211 60q0 25 -10 51l-117 309h-516q-47 -129 -70 -205q-25 -84 -24 -121q0 -82 235 -94v-94h-622zM365 1679q29 94 94 166q78 86 168 86 q92 0 184 -49q76 -41 131 -41q74 0 100 29q10 10 54 94l78 -22q-27 -98 -97 -177q-82 -86 -176 -86q-76 0 -173 46.5t-150 46.5q-51 0 -76 -29q-14 -14 -62 -98zM475 627h430l-215 575z" />
<glyph unicode="&#xc4;" horiz-adv-x="1484" d="M-49 0v94q96 4 153 39q80 47 121 150q162 422 484 1261h102l489 -1306q27 -72 92.5 -106t147.5 -38v-94h-676v94q211 12 211 60q0 25 -10 51l-117 309h-516q-47 -129 -70 -205q-25 -84 -24 -121q0 -82 235 -94v-94h-622zM379 1808q0 57 39 98.5t94 41.5q61 0 100 -39 t39 -92q0 -59 -40 -101.5t-99 -42.5q-55 0 -94 40t-39 95zM475 627h430l-215 575zM854 1808q0 57 39 98.5t96 41.5q59 0 98 -39t39 -92q0 -59 -39.5 -101.5t-97.5 -42.5q-57 0 -96 40t-39 95z" />
<glyph unicode="&#xc5;" horiz-adv-x="1484" d="M-49 0v94q96 4 153 39q82 47 121 150q150 391 453 1177q-96 14 -149.5 73.5t-53.5 145.5q0 96 78 161t197 65q123 0 198.5 -63.5t75.5 -162.5q0 -78 -49 -136t-135 -79l460 -1226q27 -72 92.5 -106t147.5 -38v-94h-676v94q211 12 211 60q0 25 -10 51l-117 309h-516 q-47 -129 -70 -205q-25 -84 -24 -121q0 -82 235 -94v-94h-622zM475 627h430l-215 575zM625 1679q0 -152 125 -151q124 -1 124 151t-124 152q-125 0 -125 -152z" />
<glyph unicode="&#xc6;" horiz-adv-x="2150" d="M145 1370l29 68q98 -45 172 -45q104 0 238 69h53q-29 -152 -29 -252v-518q0 -47 47 -63q41 -18 138 -25v-88h-574v88q115 6 146 19q49 14 49 59v594q-41 -4 -72 -4q-59 0 -197 98zM387 -82l1247 1538l95 -72l-1246 -1538zM1249 -63q184 117 228 147q82 57 151 129 q111 115 111 291q0 158 -146 158q-143 0 -149 -97q2 -8 25.5 -35.5t23.5 -54.5q0 -106 -123 -106q-47 0 -75.5 34.5t-28.5 81.5q0 88 82 170q102 104 274 105q143 0 237.5 -78t94.5 -193q0 -156 -89 -251t-374 -238l-8 -27h336q61 0 149 177l72 -27l-111 -311h-680v125z" />
<glyph unicode="&#xc7;" horiz-adv-x="1396" d="M80 743q0 344 213 575.5t536 231.5q88 0 181.5 -32.5t140.5 -79.5l57 106h101l8 -569h-92q-147 465 -459 465q-176 0 -291 -162q-127 -182 -127 -516q0 -274 142.5 -453.5t361.5 -179.5q174 0 276 88q78 68 152 225l94 -55q-176 -418 -588 -418h-6v-47q238 0 238 -139 q0 -113 -127 -160q-102 -37 -307 -37v84q137 0 182 8q86 16 86 72q0 41 -45 51q-23 4 -109 4v168q-283 29 -450.5 238t-167.5 532z" />
<glyph unicode="&#xc8;" horiz-adv-x="1411" d="M70 0v94q119 6 168 25q66 25 65 106v1057q0 80 -65 107q-88 35 -168 38v95h1181v-381h-92q-18 78 -88 164q-74 94 -139.5 104t-175.5 10h-211v-577h149q113 0 178 65q51 51 66 193h92v-633h-92q-2 47 -24.5 113.5t-41.5 89.5q-57 68 -178 67h-149v-434q0 -131 41 -162.5 t202 -31.5q270 0 316.5 46t103.5 152q51 94 72 154h86l-29 -461h-1267zM434 1876q0 41 29 72.5t74 31.5q55 0 132.5 -58.5t321.5 -240.5l-30 -61l-410 139q-117 39 -117 117z" />
<glyph unicode="&#xc9;" horiz-adv-x="1411" d="M70 0v94q119 6 168 25q66 25 65 106v1057q0 80 -65 107q-88 35 -168 38v95h1181v-381h-92q-18 78 -88 164q-74 94 -139.5 104t-175.5 10h-211v-577h149q113 0 178 65q51 51 66 193h92v-633h-92q-2 47 -24.5 113.5t-41.5 89.5q-57 68 -178 67h-149v-434q0 -131 41 -162.5 t202 -31.5q270 0 316.5 46t103.5 152q51 94 72 154h86l-29 -461h-1267zM485 1681l320 240q80 59 135 59q45 0 73.5 -31.5t28.5 -72.5q0 -76 -116 -117l-410 -139z" />
<glyph unicode="&#xca;" horiz-adv-x="1411" d="M70 0v94q119 6 168 25q66 25 65 106v1057q0 80 -65 107q-88 35 -168 38v95h1181v-381h-92q-18 78 -88 164q-74 94 -139.5 104t-175.5 10h-211v-577h149q113 0 178 65q51 51 66 193h92v-633h-92q-2 47 -24.5 113.5t-41.5 89.5q-57 68 -178 67h-149v-434q0 -131 41 -162.5 t202 -31.5q270 0 316.5 46t103.5 152q51 94 72 154h86l-29 -461h-1267zM373 1626l264 307q27 31 42 39t60 8q47 0 66 -10q6 -4 35 -37q47 -53 264 -309l-64 -35l-305 213l-303 -213z" />
<glyph unicode="&#xcb;" horiz-adv-x="1411" d="M70 0v94q119 6 168 25q66 25 65 106v1057q0 80 -65 107q-88 35 -168 38v95h1181v-381h-92q-18 78 -88 164q-74 94 -139.5 104t-175.5 10h-211v-577h149q113 0 178 65q51 51 66 193h92v-633h-92q-2 47 -24.5 113.5t-41.5 89.5q-57 68 -178 67h-149v-434q0 -131 41 -162.5 t202 -31.5q270 0 316.5 46t103.5 152q51 94 72 154h86l-29 -461h-1267zM354 1829q0 57 39 98t94 41q61 0 100.5 -39t39.5 -92q0 -59 -40 -101t-100 -42q-55 0 -94 40t-39 95zM829 1829q0 57 39 98t97 41q59 0 98 -39t39 -92q0 -59 -40 -101t-97 -42t-96.5 40t-39.5 95z" />
<glyph unicode="&#xcc;" horiz-adv-x="856" d="M86 0v94q129 8 156 19q66 29 65 106v1065q0 76 -65 107q-57 27 -156 36v95h684v-95q-57 -6 -156 -26q-66 -23 -65 -107v-1065q0 -78 65 -106q51 -23 156 -29v-94h-684zM166 1876q0 41 28.5 72.5t73.5 31.5q55 0 133 -58.5t322 -240.5l-31 -61l-409 139q-117 39 -117 117z " />
<glyph unicode="&#xcd;" horiz-adv-x="856" d="M86 0v94q129 8 156 19q66 29 65 106v1065q0 76 -65 107q-57 27 -156 36v95h684v-95q-57 -6 -156 -26q-66 -23 -65 -107v-1065q0 -78 65 -106q51 -23 156 -29v-94h-684zM158 1681l319 240q80 59 135 59q45 0 74 -31.5t29 -72.5q0 -76 -117 -117l-410 -139z" />
<glyph unicode="&#xce;" horiz-adv-x="856" d="M63 1626l265 307q27 31 42 39t60 8q47 0 66 -10q6 -4 34 -37q48 -53 265 -309l-64 -35l-305 213l-303 -213zM86 0v94q129 8 156 19q66 29 65 106v1065q0 76 -65 107q-57 27 -156 36v95h684v-95q-57 -6 -156 -26q-66 -23 -65 -107v-1065q0 -78 65 -106q51 -23 156 -29v-94 h-684z" />
<glyph unicode="&#xcf;" horiz-adv-x="856" d="M63 1829q0 57 39 98t95 41q61 0 100 -39t39 -92q0 -59 -40 -101t-99 -42q-55 0 -94.5 40t-39.5 95zM86 0v94q129 8 156 19q66 29 65 106v1065q0 76 -65 107q-57 27 -156 36v95h684v-95q-57 -6 -156 -26q-66 -23 -65 -107v-1065q0 -78 65 -106q51 -23 156 -29v-94h-684z M528 1829q0 57 39 98t97 41q59 0 98 -39t39 -92q0 -59 -40 -101t-97 -42t-96.5 40t-39.5 95z" />
<glyph unicode="&#xd0;" horiz-adv-x="1644" d="M76 737v115h227v430q0 80 -64.5 110.5t-150.5 34.5v95h684q289 0 508 -158q285 -204 285 -612q0 -365 -260 -570q-229 -182 -570 -182h-655v94q109 0 158 19q66 25 65 108v516h-227zM545 276q0 -170 221 -170q258 0 393 181q129 170 129 467q0 293 -160.5 478t-420.5 185 q-72 0 -162 -4v-561h373v-115h-373v-461z" />
<glyph unicode="&#xd1;" horiz-adv-x="1683" d="M8 1427v95h469l842 -1137v686q0 244 -72 293q-29 18 -103.5 39.5t-113.5 23.5v95h676v-95q-33 -2 -96 -18q-72 -18 -99 -35q-72 -45 -71 -291v-1097h-109l-792 1071q-76 100 -123 207v-803q0 -240 71 -299q25 -20 111 -45q74 -20 109 -23v-94h-680v94q31 2 105.5 22.5 t92.5 35.5q70 49 70 297v725q0 139 -92 196q-82 53 -195 57zM473 1696q29 94 94 166q78 86 168 86q92 0 185 -50q76 -41 131 -40q74 0 100 28q10 10 53 94l78 -22q-27 -98 -96 -176q-82 -86 -176 -86q-76 0 -173.5 46t-150.5 46q-51 0 -76 -29q-14 -14 -61 -98z" />
<glyph unicode="&#xd2;" horiz-adv-x="1624" d="M82 745q0 362 203 580q215 229 528 229t530 -229q199 -211 199 -555q0 -373 -215 -588t-522 -215q-293 0 -500 207q-223 223 -223 571zM356 756q0 -295 111 -477q123 -199 346 -199t344 199q111 180 111 485q0 287 -101 465q-121 213 -354 213q-215 0 -336 -181.5 t-121 -504.5zM537 1876q0 41 28.5 72.5t73.5 31.5q55 0 133 -58.5t322 -240.5l-31 -61l-410 139q-117 39 -116 117z" />
<glyph unicode="&#xd3;" horiz-adv-x="1624" d="M82 745q0 362 203 580q215 229 528 229t530 -229q199 -211 199 -555q0 -373 -215 -588t-522 -215q-293 0 -500 207q-223 223 -223 571zM356 756q0 -295 111 -477q123 -199 346 -199t344 199q111 180 111 485q0 287 -101 465q-121 213 -354 213q-215 0 -336 -181.5 t-121 -504.5zM559 1681l320 240q80 59 135 59q45 0 73.5 -31.5t28.5 -72.5q0 -76 -117 -117l-409 -139z" />
<glyph unicode="&#xd4;" horiz-adv-x="1624" d="M82 745q0 362 203 580q215 229 528 229t530 -229q199 -211 199 -555q0 -373 -215 -588t-522 -215q-293 0 -500 207q-223 223 -223 571zM356 756q0 -295 111 -477q123 -199 346 -199t344 199q111 180 111 485q0 287 -101 465q-121 213 -354 213q-215 0 -336 -181.5 t-121 -504.5zM449 1626l264 307q27 31 42 39t60 8q47 0 66 -10q6 -4 34 -37q48 -53 265 -309l-64 -35l-305 213l-303 -213z" />
<glyph unicode="&#xd5;" horiz-adv-x="1624" d="M82 745q0 362 203 580q215 229 528 229t530 -229q199 -211 199 -555q0 -373 -215 -588t-522 -215q-293 0 -500 207q-223 223 -223 571zM356 756q0 -295 111 -477q123 -199 346 -199t344 199q111 180 111 485q0 287 -101 465q-121 213 -354 213q-215 0 -336 -181.5 t-121 -504.5zM444 1696q29 94 95 166q78 86 168 86q92 0 184 -50q76 -41 131 -40q74 0 100 28q10 10 54 94l77 -22q-27 -98 -96 -176q-82 -86 -176 -86q-76 0 -173 46t-151 46q-51 0 -75 -29q-14 -14 -62 -98z" />
<glyph unicode="&#xd6;" horiz-adv-x="1624" d="M82 745q0 362 203 580q215 229 528 229t530 -229q199 -211 199 -555q0 -373 -215 -588t-522 -215q-293 0 -500 207q-223 223 -223 571zM356 756q0 -295 111 -477q123 -199 346 -199t344 199q111 180 111 485q0 287 -101 465q-121 213 -354 213q-215 0 -336 -181.5 t-121 -504.5zM438 1829q0 57 39 98t94 41q61 0 100.5 -39t39.5 -92q0 -59 -40 -101t-100 -42q-55 0 -94 40t-39 95zM913 1829q0 57 39 98t97 41q59 0 98 -39t39 -92q0 -59 -40 -101t-97 -42t-96.5 40t-39.5 95z" />
<glyph unicode="&#xd7;" horiz-adv-x="1363" d="M182 197l396 393l-396 393l107 107l393 -396l393 396l107 -107l-396 -393l396 -393l-107 -107l-393 395l-393 -395z" />
<glyph unicode="&#xd9;" horiz-adv-x="1673" d="M59 1427v95h678v-95q-94 -6 -153 -26q-66 -23 -66 -109v-796q0 -381 367 -381q225 0 325 135q70 96 70 248v575q0 246 -72 293q-86 55 -217 61v95h678v-95q-127 -6 -196.5 -51t-69.5 -289v-645q0 -242 -195 -370q-156 -104 -362 -105q-268 0 -426 131q-145 121 -146 301 v883q0 76 -65 111q-55 29 -150 34zM590 1876q0 41 28.5 72.5t73.5 31.5q55 0 133 -58.5t322 -240.5l-31 -61l-409 139q-117 39 -117 117z" />
<glyph unicode="&#xda;" horiz-adv-x="1673" d="M59 1427v95h678v-95q-94 -6 -153 -26q-66 -23 -66 -109v-796q0 -381 367 -381q225 0 325 135q70 96 70 248v575q0 246 -72 293q-86 55 -217 61v95h678v-95q-127 -6 -196.5 -51t-69.5 -289v-645q0 -242 -195 -370q-156 -104 -362 -105q-268 0 -426 131q-145 121 -146 301 v883q0 76 -65 111q-55 29 -150 34zM649 1681l320 240q80 59 135 59q45 0 73.5 -31.5t28.5 -72.5q0 -76 -116 -117l-410 -139z" />
<glyph unicode="&#xdb;" horiz-adv-x="1673" d="M59 1427v95h678v-95q-94 -6 -153 -26q-66 -23 -66 -109v-796q0 -381 367 -381q225 0 325 135q70 96 70 248v575q0 246 -72 293q-86 55 -217 61v95h678v-95q-127 -6 -196.5 -51t-69.5 -289v-645q0 -242 -195 -370q-156 -104 -362 -105q-268 0 -426 131q-145 121 -146 301 v883q0 76 -65 111q-55 29 -150 34zM506 1626l264 307q27 31 42 39t60 8q47 0 66 -10q6 -4 35 -37q47 -53 264 -309l-63 -35l-306 213l-303 -213z" />
<glyph unicode="&#xdc;" horiz-adv-x="1673" d="M59 1427v95h678v-95q-94 -6 -153 -26q-66 -23 -66 -109v-796q0 -381 367 -381q225 0 325 135q70 96 70 248v575q0 246 -72 293q-86 55 -217 61v95h678v-95q-127 -6 -196.5 -51t-69.5 -289v-645q0 -242 -195 -370q-156 -104 -362 -105q-268 0 -426 131q-145 121 -146 301 v883q0 76 -65 111q-55 29 -150 34zM500 1829q0 57 39 98t94 41q61 0 100 -39t39 -92q0 -59 -40 -101t-99 -42q-55 0 -94 40t-39 95zM975 1829q0 57 39 98t96 41q59 0 98 -39t39 -92q0 -59 -40 -101t-97 -42t-96 40t-39 95z" />
<glyph unicode="&#xdd;" horiz-adv-x="1341" d="M-66 1427v95h699v-95q-109 -6 -133 -10q-76 -10 -76 -41q0 -43 309 -620q315 522 316 592q0 68 -203 79v95h569v-95q-68 -6 -136.5 -41.5t-117.5 -109.5q-100 -154 -311 -545q-74 -137 -74 -242v-251q0 -78 66 -109q45 -20 174 -35v-94h-721v94q74 8 174 25q66 25 66 108 v340q0 53 -54 162q-143 293 -264 518q-74 137 -190 166q-41 12 -93 14zM494 1681l319 240q80 59 135 59q45 0 74 -31.5t29 -72.5q0 -76 -117 -117l-410 -139z" />
<glyph unicode="&#xde;" horiz-adv-x="1337" d="M76 1427v95h696v-95q-106 -6 -162 -24q-66 -23 -65 -109v-77h270q193 0 323 -110t130 -284q0 -231 -168 -360q-150 -117 -375 -117h-180v-121q0 -84 67 -110q41 -16 170 -21v-94h-698v94q117 6 154 21q66 27 65 110v1063q0 88 -65 113q-55 20 -162 26zM545 455h106 q201 0 287 123q55 77 55 194q0 336 -301 336h-147v-653z" />
<glyph unicode="&#xdf;" horiz-adv-x="1320" d="M47 948v96q172 0 193 80q0 213 143 346q137 131 350 132q154 0 258 -76q113 -80 113 -211q0 -166 -115 -258q-70 -43 -139 -88q0 -80 22 -119q37 -63 171.5 -166.5t175.5 -161.5q55 -75 55 -188q0 -154 -102.5 -260.5t-256.5 -106.5q-160 0 -245 74q-78 68 -78 172 q0 63 39 105t96 42q45 0 78 -32.5t33 -75.5q0 -31 -21.5 -66.5t-21.5 -46.5q0 -18 30 -41q41 -31 105 -30q74 0 123 49t49 119q0 74 -33 122q-43 63 -176 162q-217 160 -217 301q0 104 61 176l113 113q61 74 61 180q0 98 -54 153.5t-150 55.5q-244 0 -254 -381 q-2 -72 -2 -94v-1024h-375v90q37 2 104 14q57 18 58 109v717z" />
<glyph unicode="&#xe0;" horiz-adv-x="1130" d="M84 244q0 236 227 325q143 49 383 150v98q0 66 -30 123q-49 92 -160 92q-96 0 -148 -55q0 -16 10.5 -57t10.5 -72q0 -109 -135 -109q-109 0 -109 138q0 102 129 180q119 74 256 73q195 0 281 -59q113 -80 112 -297q0 -121 -6 -324.5t-6 -228.5q0 -96 90 -96q68 0 72 168 h90q-12 -313 -254 -313q-150 0 -201 157h-8q-129 -162 -338 -162q-119 0 -192.5 73t-73.5 196zM252 1497q0 43 28.5 74t79.5 31q57 0 129 -66q72 -57 297 -254l-36 -61q-154 61 -385 155q-113 47 -113 121zM313 281q0 -164 150 -164q80 0 137 39q35 25 86 88l10 358 q-195 -59 -276 -121q-106 -78 -107 -200z" />
<glyph unicode="&#xe1;" horiz-adv-x="1130" d="M84 244q0 236 227 325q143 49 383 150v98q0 66 -30 123q-49 92 -160 92q-96 0 -148 -55q0 -16 10.5 -57t10.5 -72q0 -109 -135 -109q-109 0 -109 138q0 102 129 180q119 74 256 73q195 0 281 -59q113 -80 112 -297q0 -121 -6 -324.5t-6 -228.5q0 -96 90 -96q68 0 72 168 h90q-12 -313 -254 -313q-150 0 -201 157h-8q-129 -162 -338 -162q-119 0 -192.5 73t-73.5 196zM285 1282q111 92 297 254q72 66 129 66q51 0 79.5 -31t28.5 -74q0 -76 -112 -121q-84 -33 -385 -155zM313 281q0 -164 150 -164q80 0 137 39q35 25 86 88l10 358 q-195 -59 -276 -121q-106 -78 -107 -200z" />
<glyph unicode="&#xe2;" horiz-adv-x="1130" d="M84 244q0 236 227 325q143 49 383 150v98q0 66 -30 123q-49 92 -160 92q-96 0 -148 -55q0 -16 10.5 -57t10.5 -72q0 -109 -135 -109q-109 0 -109 138q0 102 129 180q119 74 256 73q195 0 281 -59q113 -80 112 -297q0 -121 -6 -324.5t-6 -228.5q0 -96 90 -96q68 0 72 168 h90q-12 -313 -254 -313q-150 0 -201 157h-8q-129 -162 -338 -162q-119 0 -192.5 73t-73.5 196zM195 1239q119 170 227 311q27 35 44 43.5t58 8.5t56.5 -8.5t40.5 -39.5q49 -61 229 -315l-70 -31l-260 213l-256 -213zM313 281q0 -164 150 -164q80 0 137 39q35 25 86 88 l10 358q-195 -59 -276 -121q-106 -78 -107 -200z" />
<glyph unicode="&#xe3;" horiz-adv-x="1130" d="M84 244q0 236 227 325q143 49 383 150v98q0 66 -30 123q-49 92 -160 92q-96 0 -148 -55q0 -16 10.5 -57t10.5 -72q0 -109 -135 -109q-109 0 -109 138q0 102 129 180q119 74 256 73q195 0 281 -59q113 -80 112 -297q0 -121 -6 -324.5t-6 -228.5q0 -96 90 -96q68 0 72 168 h90q-12 -313 -254 -313q-150 0 -201 157h-8q-129 -162 -338 -162q-119 0 -192.5 73t-73.5 196zM133 1303q33 96 94 165q78 88 168 88q80 0 170 -49q74 -41 121 -41q72 0 98 29q4 4 50 96l81 -22q-27 -100 -96 -176q-80 -88 -174 -88q-74 0 -162 46t-137 46q-51 0 -74 -29 q-2 -4 -57 -100zM313 281q0 -164 150 -164q80 0 137 39q35 25 86 88l10 358q-195 -59 -276 -121q-106 -78 -107 -200z" />
<glyph unicode="&#xe4;" horiz-adv-x="1130" d="M84 244q0 236 227 325q143 49 383 150v98q0 66 -30 123q-49 92 -160 92q-96 0 -148 -55q0 -16 10.5 -57t10.5 -72q0 -109 -135 -109q-109 0 -109 138q0 102 129 180q119 74 256 73q195 0 281 -59q113 -80 112 -297q0 -121 -6 -324.5t-6 -228.5q0 -96 90 -96q68 0 72 168 h90q-12 -313 -254 -313q-150 0 -201 157h-8q-129 -162 -338 -162q-119 0 -192.5 73t-73.5 196zM186 1432q0 55 37 95t88 40q57 0 94 -39t37 -88q0 -57 -36.5 -98.5t-94.5 -41.5q-51 0 -88 39t-37 93zM313 281q0 -164 150 -164q80 0 137 39q35 25 86 88l10 358 q-195 -59 -276 -121q-106 -78 -107 -200zM612 1432q0 55 37 95t90 40q55 0 92 -38t37 -89q0 -55 -36.5 -97.5t-92.5 -42.5q-53 0 -90 39t-37 93z" />
<glyph unicode="&#xe5;" horiz-adv-x="1130" d="M84 244q0 236 227 325q143 49 383 150v98q0 66 -30 123q-49 92 -160 92q-96 0 -148 -55q0 -16 10.5 -57t10.5 -72q0 -109 -135 -109q-109 0 -109 138q0 102 129 180q119 74 256 73q195 0 281 -59q113 -80 112 -297q0 -121 -6 -324.5t-6 -228.5q0 -96 90 -96q68 0 72 168 h90q-12 -313 -254 -313q-150 0 -201 157h-8q-129 -162 -338 -162q-119 0 -192.5 73t-73.5 196zM274 1405q0 92 73 152.5t183 60.5q115 0 185.5 -59.5t70.5 -153.5q0 -92 -70.5 -152.5t-185.5 -60.5q-117 0 -186.5 58.5t-69.5 154.5zM313 281q0 -164 150 -164q80 0 137 39 q35 25 86 88l10 358q-195 -59 -276 -121q-106 -78 -107 -200zM410 1405q0 -141 120 -141q121 0 121 141t-121 141t-120 -141z" />
<glyph unicode="&#xe6;" horiz-adv-x="2150" d="M145 1370l29 68q98 -45 172 -45q104 0 238 69h53q-29 -152 -29 -252v-518q0 -47 47 -63q41 -18 138 -25v-88h-574v88q115 6 146 19q49 14 49 59v594q-41 -4 -72 -4q-59 0 -197 98zM403 -82l1248 1538l94 -72l-1245 -1538zM1059 102v107l538 571h105v-565h227v-113h-229 v-131q0 -51 37 -63q27 -10 108 -14v-84h-479v84q82 0 109 8q41 12 41 59v141h-457zM1196 215h317v342z" />
<glyph unicode="&#xe7;" horiz-adv-x="1017" d="M76 557q0 238 139 401q147 172 377 172q172 0 272 -83q94 -78 94 -193q0 -162 -133 -162t-133 123q0 59 19.5 95t19.5 51q-12 66 -143 65q-115 0 -189 -102q-88 -123 -88 -357q0 -197 84 -319q90 -129 238 -129q102 0 176 53q63 47 127 156l82 -72q-68 -123 -182 -199 q-123 -80 -258 -80h-9v-55q238 0 238 -137q0 -199 -434 -199v84q135 0 182 11q86 16 86 71q0 41 -45 49q-18 4 -109 4v179q-199 31 -305 184.5t-106 388.5z" />
<glyph unicode="&#xe8;" horiz-adv-x="1069" d="M76 559q0 231 131 397q137 174 356 174q223 0 338 -139q100 -123 100 -332v-71h-694q0 -467 342 -467q106 0 176 55q55 43 119 152l82 -68q-61 -127 -176 -205q-121 -80 -264 -80q-250 0 -385 168q-125 156 -125 416zM295 1497q0 43 28.5 74t79.5 31q57 0 129 -66 q72 -57 297 -254l-36 -61q-154 61 -385 155q-113 47 -113 121zM307 690l465 4q0 334 -211 334q-106 0 -177 -93t-77 -245z" />
<glyph unicode="&#xe9;" horiz-adv-x="1069" d="M76 559q0 231 131 397q137 174 356 174q223 0 338 -139q100 -123 100 -332v-71h-694q0 -467 342 -467q106 0 176 55q55 43 119 152l82 -68q-61 -127 -176 -205q-121 -80 -264 -80q-250 0 -385 168q-125 156 -125 416zM307 690l465 4q0 334 -211 334q-106 0 -177 -93 t-77 -245zM328 1282q111 92 297 254q72 66 129 66q51 0 79.5 -31t28.5 -74q0 -76 -112 -121q-84 -33 -385 -155z" />
<glyph unicode="&#xea;" horiz-adv-x="1069" d="M76 559q0 231 131 397q137 174 356 174q223 0 338 -139q100 -123 100 -332v-71h-694q0 -467 342 -467q106 0 176 55q55 43 119 152l82 -68q-61 -127 -176 -205q-121 -80 -264 -80q-250 0 -385 168q-125 156 -125 416zM233 1239q119 170 228 311q27 35 44 43.5t58 8.5 t56.5 -8.5t39.5 -39.5q50 -61 230 -315l-70 -31l-260 213l-256 -213zM307 690l465 4q0 334 -211 334q-106 0 -177 -93t-77 -245z" />
<glyph unicode="&#xeb;" horiz-adv-x="1069" d="M76 559q0 231 131 397q137 174 356 174q223 0 338 -139q100 -123 100 -332v-71h-694q0 -467 342 -467q106 0 176 55q55 43 119 152l82 -68q-61 -127 -176 -205q-121 -80 -264 -80q-250 0 -385 168q-125 156 -125 416zM225 1432q0 55 37 95t88 40q57 0 94 -39t37 -88 q0 -57 -36.5 -98.5t-94.5 -41.5q-51 0 -88 39t-37 93zM307 690l465 4q0 334 -211 334q-106 0 -177 -93t-77 -245zM651 1432q0 55 37 95t90 40q55 0 92 -38t37 -89q0 -55 -36.5 -97.5t-92.5 -42.5q-53 0 -90 39t-37 93z" />
<glyph unicode="&#xec;" horiz-adv-x="669" d="M10 1497q0 43 29 74t80 31q57 0 129 -66q72 -57 297 -254l-37 -61q-154 61 -385 155q-113 47 -113 121zM47 999v88l393 27l15 -16v-877q0 -78 61 -104q55 -25 98 -27v-90h-534v90q68 4 100 14q59 20 60 103v641q0 74 -60 117q-43 31 -133 34z" />
<glyph unicode="&#xed;" horiz-adv-x="669" d="M43 1282q111 92 297 254q72 66 129 66q51 0 80 -31t29 -74q0 -76 -113 -121q-84 -33 -385 -155zM47 999v88l393 27l15 -16v-877q0 -78 61 -104q55 -25 98 -27v-90h-534v90q68 4 100 14q59 20 60 103v641q0 74 -60 117q-43 31 -133 34z" />
<glyph unicode="&#xee;" horiz-adv-x="669" d="M-27 1237l205 315q33 49 111 50q76 0 104 -46l207 -319l-72 -29l-243 226l-240 -226zM47 999v88l393 27l15 -16v-877q0 -78 61 -104q55 -25 98 -27v-90h-534v90q68 4 100 14q59 20 60 103v641q0 74 -60 117q-43 31 -133 34z" />
<glyph unicode="&#xef;" horiz-adv-x="669" d="M-8 1427q0 55 37 95.5t88 40.5q57 0 94 -39t37 -88q0 -57 -37 -98.5t-94 -41.5q-51 0 -88 39t-37 92zM47 999v88l393 27l15 -16v-877q0 -78 61 -104q55 -25 98 -27v-90h-534v90q68 4 100 14q59 20 60 103v641q0 74 -60 117q-43 31 -133 34zM379 1427q0 55 37 95.5 t90 40.5q55 0 92 -38t37 -89q0 -55 -37 -97.5t-92 -42.5q-53 0 -90 39t-37 92z" />
<glyph unicode="&#xf0;" horiz-adv-x="1181" d="M74 520q0 240 136 386.5t357 146.5q193 0 287 -150l6 2q-31 211 -211 418l-264 -162l-59 90l258 152q-53 57 -181 127l89 67q139 -63 215 -135l221 135l51 -92l-195 -114q320 -297 320 -717q0 -322 -135 -510q-139 -195 -391 -195q-209 0 -351 142q-154 154 -153 409z M311 532q0 -459 279 -458q143 0 215 145q59 125 59 328q0 174 -65 280q-74 117 -207 117q-281 0 -281 -412z" />
<glyph unicode="&#xf1;" horiz-adv-x="1329" d="M66 1001v89l370 24l15 -14v-162h4q111 109 139 127q94 66 221 65q154 0 231.5 -97t77.5 -267v-551q0 -76 60 -100q41 -23 98 -25v-90h-541v90q74 4 105 12q61 23 61 105v530q0 115 -53 183q-51 61 -127 61q-109 0 -190 -66q-59 -47 -86 -108v-590q0 -72 61 -100 q41 -23 106 -27v-90h-542v90q63 4 98 12q61 23 62 105v643q0 82 -62 123q-37 25 -108 28zM268 1303q33 96 94 165q78 88 168 88q80 0 170 -49q74 -41 121 -41q72 0 99 29q4 4 49 96l82 -22q-27 -100 -97 -176q-80 -88 -174 -88q-74 0 -162 46t-137 46q-51 0 -73 -29 q-2 -4 -58 -100z" />
<glyph unicode="&#xf2;" horiz-adv-x="1189" d="M74 549q0 258 145.5 421t380.5 163q233 0 374.5 -160t141.5 -408q0 -260 -137 -422q-145 -172 -393 -172q-213 0 -357 154q-156 162 -155 424zM311 567q0 -217 64 -344q76 -150 223 -149q141 0 215 145q66 129 66 342q0 469 -281 469q-158 0 -231 -153q-55 -119 -56 -310 zM324 1497q0 43 28.5 74t79.5 31q57 0 129 -66q72 -57 297 -254l-37 -61q-154 61 -385 155q-113 47 -112 121z" />
<glyph unicode="&#xf3;" horiz-adv-x="1189" d="M74 549q0 258 145.5 421t380.5 163q233 0 374.5 -160t141.5 -408q0 -260 -137 -422q-145 -172 -393 -172q-213 0 -357 154q-156 162 -155 424zM311 567q0 -217 64 -344q76 -150 223 -149q141 0 215 145q66 129 66 342q0 469 -281 469q-158 0 -231 -153q-55 -119 -56 -310 zM352 1282q111 92 297 254q72 66 129 66q51 0 80 -31t29 -74q0 -76 -113 -121q-84 -33 -385 -155z" />
<glyph unicode="&#xf4;" horiz-adv-x="1189" d="M74 549q0 258 145.5 421t380.5 163q233 0 374.5 -160t141.5 -408q0 -260 -137 -422q-145 -172 -393 -172q-213 0 -357 154q-156 162 -155 424zM268 1239q119 170 228 311q27 35 44 43.5t58 8.5t56.5 -8.5t39.5 -39.5q50 -61 230 -315l-70 -31l-260 213l-256 -213z M311 567q0 -217 64 -344q76 -150 223 -149q141 0 215 145q66 129 66 342q0 469 -281 469q-158 0 -231 -153q-55 -119 -56 -310z" />
<glyph unicode="&#xf5;" horiz-adv-x="1189" d="M74 549q0 258 145.5 421t380.5 163q233 0 374.5 -160t141.5 -408q0 -260 -137 -422q-145 -172 -393 -172q-213 0 -357 154q-156 162 -155 424zM207 1303q33 96 94 165q78 88 168 88q80 0 170 -49q74 -41 121 -41q72 0 98 29q4 4 49 96l82 -22q-27 -100 -96 -176 q-80 -88 -174 -88q-74 0 -162 46t-137 46q-51 0 -74 -29q-2 -4 -57 -100zM311 567q0 -217 64 -344q76 -150 223 -149q141 0 215 145q66 129 66 342q0 469 -281 469q-158 0 -231 -153q-55 -119 -56 -310z" />
<glyph unicode="&#xf6;" horiz-adv-x="1189" d="M74 549q0 258 145.5 421t380.5 163q233 0 374.5 -160t141.5 -408q0 -260 -137 -422q-145 -172 -393 -172q-213 0 -357 154q-156 162 -155 424zM256 1432q0 55 37 95t88 40q57 0 94 -39t37 -88q0 -57 -37 -98.5t-94 -41.5q-51 0 -88 39t-37 93zM311 567q0 -217 64 -344 q76 -150 223 -149q141 0 215 145q66 129 66 342q0 469 -281 469q-158 0 -231 -153q-55 -119 -56 -310zM682 1432q0 55 37 95t90 40q55 0 92 -38t37 -89q0 -55 -37 -97.5t-92 -42.5q-53 0 -90 39t-37 93z" />
<glyph unicode="&#xf7;" horiz-adv-x="1363" d="M141 514v148h1082v-148h-1082zM530 158q0 63 45.5 108t106.5 45q63 0 107.5 -45t44.5 -108t-44.5 -108.5t-107.5 -45.5q-61 0 -106.5 45t-45.5 109zM530 1018q0 63 45.5 108t106.5 45q63 0 107.5 -45t44.5 -108t-44.5 -108.5t-107.5 -45.5q-61 0 -106.5 45t-45.5 109z " />
<glyph unicode="&#xf9;" horiz-adv-x="1292" d="M33 999v88l375 27l14 -16v-744q0 -115 48 -177t124 -62q164 0 266 176v571q0 76 -57 115q-27 18 -148 22v88l406 27l14 -16v-852q0 -70 60 -111q27 -18 108 -22v-88l-364 -27l-17 18v144h-6q-96 -100 -137 -125q-90 -59 -217 -60q-297 0 -297 377v500q0 74 -60 117 q-39 27 -112 30zM356 1497q0 43 29 74t80 31q57 0 129 -66q72 -57 297 -254l-37 -61q-154 61 -385 155q-113 47 -113 121z" />
<glyph unicode="&#xfa;" horiz-adv-x="1292" d="M33 999v88l375 27l14 -16v-744q0 -115 48 -177t124 -62q164 0 266 176v571q0 76 -57 115q-27 18 -148 22v88l406 27l14 -16v-852q0 -70 60 -111q27 -18 108 -22v-88l-364 -27l-17 18v144h-6q-96 -100 -137 -125q-90 -59 -217 -60q-297 0 -297 377v500q0 74 -60 117 q-39 27 -112 30zM389 1282q111 92 297 254q72 66 129 66q51 0 80 -31t29 -74q0 -76 -113 -121q-84 -33 -385 -155z" />
<glyph unicode="&#xfb;" horiz-adv-x="1292" d="M33 999v88l375 27l14 -16v-744q0 -115 48 -177t124 -62q164 0 266 176v571q0 76 -57 115q-27 18 -148 22v88l406 27l14 -16v-852q0 -70 60 -111q27 -18 108 -22v-88l-364 -27l-17 18v144h-6q-96 -100 -137 -125q-90 -59 -217 -60q-297 0 -297 377v500q0 74 -60 117 q-39 27 -112 30zM297 1239q119 170 227 311q27 35 44.5 43.5t58.5 8.5t56 -8.5t40 -39.5q49 -61 229 -315l-69 -31l-260 213l-256 -213z" />
<glyph unicode="&#xfc;" horiz-adv-x="1292" d="M33 999v88l375 27l14 -16v-744q0 -115 48 -177t124 -62q164 0 266 176v571q0 76 -57 115q-27 18 -148 22v88l406 27l14 -16v-852q0 -70 60 -111q27 -18 108 -22v-88l-364 -27l-17 18v144h-6q-96 -100 -137 -125q-90 -59 -217 -60q-297 0 -297 377v500q0 74 -60 117 q-39 27 -112 30zM285 1432q0 55 36.5 95t88.5 40q57 0 94 -39t37 -88q0 -57 -37 -98.5t-94 -41.5q-51 0 -88 39t-37 93zM711 1432q0 55 36.5 95t90.5 40q55 0 92 -38t37 -89q0 -55 -37 -97.5t-92 -42.5q-53 0 -90 39t-37 93z" />
<glyph unicode="&#xfd;" horiz-adv-x="1081" d="M-20 1010v92h491v-96q-111 -4 -111 -50q4 -16 15 -47q68 -184 233 -602q6 16 213 557q14 37 15 66q0 31 -56 57q-39 18 -80 27v88h418v-86q-39 -8 -90 -43q-61 -41 -80 -88q-78 -205 -250 -623q-174 -406 -235 -500q-117 -178 -285 -178q-74 0 -119 39q-51 41 -51 119 q0 49 37 90q39 49 98 49q121 0 121 -123v-41q59 12 133 123q57 86 97 185q-96 246 -349 874q-39 94 -165 111zM344 1282q111 92 297 254q72 66 129 66q51 0 80 -31t29 -74q0 -76 -113 -121q-84 -33 -385 -155z" />
<glyph unicode="&#xfe;" horiz-adv-x="1245" d="M-14 1485v86l401 26l14 -18v-602l7 -2q143 156 297 155q199 0 329 -155q135 -162 135 -422q0 -242 -153 -403q-147 -154 -352 -154q-154 0 -254 76h-9v-260q0 -80 62 -105q72 -29 162 -33v-90h-619v90q76 4 123 19q59 18 59 106v1522q0 94 -61 131q-37 23 -141 33z M401 274q61 -176 244 -176q131 0 208 120t77 339q0 178 -66 295q-80 139 -235 139q-121 0 -228 -127v-590z" />
<glyph unicode="&#xff;" horiz-adv-x="1081" d="M-20 1010v92h491v-96q-111 -4 -111 -50q4 -16 15 -47q68 -184 233 -602q6 16 213 557q14 37 15 66q0 31 -56 57q-39 18 -80 27v88h418v-86q-39 -8 -90 -43q-61 -41 -80 -88q-78 -205 -250 -623q-174 -406 -235 -500q-117 -178 -285 -178q-74 0 -119 39q-51 41 -51 119 q0 49 37 90q39 49 98 49q121 0 121 -123v-41q59 12 133 123q57 86 97 185q-96 246 -349 874q-39 94 -165 111zM254 1432q0 55 37 95t88 40q57 0 94 -39t37 -88q0 -57 -37 -98.5t-94 -41.5q-51 0 -88 39t-37 93zM680 1432q0 55 37 95t90 40q55 0 92 -38t37 -89 q0 -55 -37 -97.5t-92 -42.5q-53 0 -90 39t-37 93z" />
<glyph unicode="&#x152;" horiz-adv-x="2150" d="M186 709q0 63 38 99t95 36q100 0 101 -90q0 -33 -35 -56.5t-35 -42.5q0 -76 144 -75q98 0 172.5 70.5t74.5 178.5q0 127 -108 127q-47 0 -121 -73l-59 102q152 86 190 119q74 63 74 145q0 119 -144 119q-53 0 -86.5 -20.5t-37.5 -40.5q0 -2 15 -29t15 -53 q0 -100 -110 -101q-49 0 -78 37q-23 31 -23 68q0 84 86 155q98 80 256 80t244 -80q68 -63 68 -135q0 -162 -260 -213v-8h22q100 0 170 -41q94 -55 94 -172q0 -154 -127 -243t-325 -89q-121 0 -209 58q-100 63 -101 168zM514 -82l1247 1538l94 -72l-1245 -1538zM1167 102v107 l539 571h104v-565h228v-113h-230v-131q0 -51 37 -63q27 -10 109 -14v-84h-479v84q86 0 108 8q41 14 41 59v141h-457zM1305 215h317v342z" />
<glyph unicode="&#x153;" horiz-adv-x="2150" d="M147 1112l105 406h72l12 -80h594v-62q-74 -100 -145.5 -200.5t-118.5 -214.5q-55 -137 -74 -199q-31 -109 -39 -236q-8 -139 -119 -139q-106 0 -106 117q0 86 174 409q37 70 239 355h-364q-102 0 -156 -166zM334 -82l1247 1538l94 -72l-1245 -1538zM1192 27q0 84 65 153 q51 57 123 86q-154 86 -153 219q0 117 110.5 200t243.5 83q152 0 243 -65.5t91 -170.5q0 -123 -158 -202q195 -80 195 -244q0 -133 -133 -221q-121 -82 -281 -82q-150 0 -248 71.5t-98 172.5zM1358 33q0 -156 196 -156q88 0 144 39q63 43 63 121q0 137 -293 196 q-111 -55 -110 -200zM1409 543q0 -78 66 -119q57 -39 190 -59q92 31 92 176q0 135 -176 135q-78 0 -125 -37t-47 -96z" />
<glyph unicode="&#x178;" horiz-adv-x="1341" d="M-66 1427v95h699v-95q-109 -6 -133 -10q-76 -10 -76 -41q0 -43 309 -620q315 522 316 592q0 68 -203 79v95h569v-95q-68 -6 -136.5 -41.5t-117.5 -109.5q-100 -154 -311 -545q-74 -137 -74 -242v-251q0 -78 66 -109q45 -20 174 -35v-94h-721v94q74 8 174 25q66 25 66 108 v340q0 53 -54 162q-143 293 -264 518q-74 137 -190 166q-41 12 -93 14zM356 1829q0 57 39 98t94 41q61 0 100.5 -39t39.5 -92q0 -59 -40 -101t-100 -42q-55 0 -94 40t-39 95zM831 1829q0 57 39 98t97 41q59 0 98 -39t39 -92q0 -59 -40 -101t-97 -42t-96.5 40t-39.5 95z" />
<glyph unicode="&#x2c6;" horiz-adv-x="681" d="M14 1239q119 170 228 311q27 35 44 43.5t58 8.5t56.5 -8.5t39.5 -39.5q50 -61 230 -315l-70 -31l-260 213l-256 -213z" />
<glyph unicode="&#x2dc;" horiz-adv-x="681" d="M-43 1303q33 96 94 165q78 88 168 88q80 0 170 -49q74 -41 121 -41q72 0 98 29q4 4 49 96l82 -22q-27 -100 -96 -176q-80 -88 -174 -88q-74 0 -162 46t-137 46q-51 0 -74 -29q-2 -4 -57 -100z" />
<glyph unicode="&#x2000;" horiz-adv-x="990" />
<glyph unicode="&#x2001;" horiz-adv-x="1980" />
<glyph unicode="&#x2002;" horiz-adv-x="990" />
<glyph unicode="&#x2003;" horiz-adv-x="1980" />
<glyph unicode="&#x2004;" horiz-adv-x="660" />
<glyph unicode="&#x2005;" horiz-adv-x="495" />
<glyph unicode="&#x2006;" horiz-adv-x="330" />
<glyph unicode="&#x2007;" horiz-adv-x="330" />
<glyph unicode="&#x2008;" horiz-adv-x="247" />
<glyph unicode="&#x2009;" horiz-adv-x="396" />
<glyph unicode="&#x200a;" horiz-adv-x="110" />
<glyph unicode="&#x2010;" horiz-adv-x="696" d="M74 477v195h549v-195h-549z" />
<glyph unicode="&#x2011;" horiz-adv-x="696" d="M74 477v195h549v-195h-549z" />
<glyph unicode="&#x2012;" horiz-adv-x="696" d="M74 477v195h549v-195h-549z" />
<glyph unicode="&#x2013;" d="M102 512v150h1024v-150h-1024z" />
<glyph unicode="&#x2014;" horiz-adv-x="1904" d="M111 500v149h1683v-149h-1683z" />
<glyph unicode="&#x2018;" horiz-adv-x="479" d="M76 1196q0 233 280 403l78 -88q-109 -63 -155 -112q-66 -68 -78 -162h43q152 0 151 -141q0 -51 -38 -91t-97 -40q-184 0 -184 231z" />
<glyph unicode="&#x2019;" horiz-adv-x="479" d="M70 1042q104 61 153 115q66 70 78 164h-43q-152 0 -152 141q0 51 38 91t98 40q184 0 184 -231q0 -129 -100 -254q-76 -92 -179 -154z" />
<glyph unicode="&#x201a;" horiz-adv-x="2150" d="M145 1370l29 68q98 -45 172 -45q104 0 238 69h53q-29 -152 -29 -252v-518q0 -47 47 -63q41 -18 138 -25v-88h-574v88q115 6 146 19q49 14 49 59v594q-41 -4 -72 -4q-59 0 -197 98zM389 -82l1247 1538l95 -72l-1246 -1538zM1202 10q0 63 38 99t95 36q100 0 101 -90 q0 -33 -35 -56.5t-35 -41.5q0 -76 143 -76q98 0 173 71t75 179q0 127 -108 127q-47 0 -121 -74l-60 103q152 86 191 119q74 63 74 145q0 119 -144 119q-53 0 -87 -20.5t-38 -41.5q0 -2 15.5 -28.5t15.5 -53.5q0 -100 -111 -100q-49 0 -77 37q-23 31 -23 67q0 84 86 156 q98 80 256 80t244 -80q68 -63 67 -135q0 -162 -260 -213v-8h23q100 0 170 -41q94 -55 94 -172q0 -154 -127 -243t-326 -89q-121 0 -208 57q-100 63 -101 168z" />
<glyph unicode="&#x201c;" horiz-adv-x="901" d="M76 1196q0 233 278 403l78 -88q-109 -63 -156 -112q-66 -68 -77 -162h43q152 0 151 -141q0 -51 -38 -91t-97 -40q-182 0 -182 231zM500 1196q0 233 278 403l78 -88q-109 -63 -156 -112q-66 -68 -77 -162h43q152 0 151 -141q0 -51 -38 -91t-97 -40q-182 0 -182 231z" />
<glyph unicode="&#x201d;" horiz-adv-x="901" d="M70 1049q106 63 153 110q66 68 78 162h-43q-152 0 -152 141q0 51 38 91t98 40q182 0 182 -231q0 -129 -100 -250q-72 -90 -177 -151zM494 1049q106 63 153 110q66 68 78 162h-43q-152 0 -152 141q0 51 38 91t98 40q182 0 182 -231q0 -129 -100 -250q-72 -90 -177 -151z " />
<glyph unicode="&#x201e;" horiz-adv-x="2150" d="M184 516v125q184 117 228 147q82 57 151 130q111 115 111 290q0 158 -146 158q-143 0 -149 -96q2 -8 25.5 -36t23.5 -54q0 -106 -123 -107q-47 0 -75.5 35t-28.5 82q0 88 82 170q102 104 274 104q143 0 237.5 -77.5t94.5 -192.5q0 -156 -89 -251t-374 -238l-8 -27h336 q61 0 149 176l72 -27l-111 -311h-680zM483 -82l1248 1538l94 -72l-1245 -1538zM1276 10q0 63 38 99t95 36q100 0 100 -90q0 -33 -34.5 -56.5t-34.5 -41.5q0 -76 143 -76q98 0 173 71t75 179q0 127 -109 127q-47 0 -120 -74l-60 103q152 86 191 119q74 63 73 145 q0 119 -143 119q-53 0 -87 -20.5t-38 -41.5q0 -2 15.5 -28.5t15.5 -53.5q0 -100 -111 -100q-49 0 -78 37q-23 31 -22 67q0 84 86 156q98 80 256 80t244 -80q68 -63 67 -135q0 -162 -260 -213v-8h23q100 0 170 -41q94 -55 94 -172q0 -154 -127 -243t-326 -89q-121 0 -209 57 q-100 63 -100 168z" />
<glyph unicode="&#x2022;" horiz-adv-x="884" d="M135 666q0 125 91 216t216 91t216.5 -91t91.5 -216q0 -123 -91.5 -212t-216.5 -89t-216 89t-91 212z" />
<glyph unicode="&#x2026;" horiz-adv-x="1855" d="M156 137q0 63 46 109.5t107 46.5q63 0 108.5 -46.5t45.5 -109.5t-45 -109t-109 -46q-61 0 -107 46t-46 109zM774 137q0 63 46 109.5t108 46.5q63 0 108 -46.5t45 -109.5t-45 -109t-108 -46q-61 0 -107.5 46t-46.5 109zM1393 137q0 63 46 109.5t107 46.5q63 0 108.5 -46.5 t45.5 -109.5t-45 -109t-109 -46q-61 0 -107 46t-46 109z" />
<glyph unicode="&#x202f;" horiz-adv-x="396" />
<glyph unicode="&#x2039;" horiz-adv-x="2150" d="M166 709q0 63 38 99t95 36q100 0 100 -90q0 -33 -34.5 -56.5t-34.5 -42.5q0 -76 143 -75q98 0 173 70.5t75 178.5q0 127 -109 127q-47 0 -120 -73l-60 102q152 86 191 119q74 63 73 145q0 119 -143 119q-53 0 -87 -20.5t-38 -40.5q0 -2 15.5 -29t15.5 -53 q0 -100 -111 -101q-49 0 -78 37q-23 31 -22 68q0 84 86 155q98 80 256 80t244 -80q68 -63 67 -135q0 -162 -260 -213v-8h23q100 0 170 -41q94 -55 94 -172q0 -154 -127 -243t-326 -89q-121 0 -209 58q-100 63 -100 168zM473 -82l1247 1538l95 -72l-1246 -1538zM1298 27 q0 84 66 153q51 57 123 86q-154 86 -154 219q0 117 110.5 200t244.5 83q152 0 242.5 -65.5t90.5 -170.5q0 -123 -157 -202q194 -80 194 -244q0 -133 -133 -221q-121 -82 -280 -82q-150 0 -248.5 71.5t-98.5 172.5zM1464 33q0 -156 197 -156q88 0 143 39q64 43 64 121 q0 137 -293 196q-111 -55 -111 -200zM1516 543q0 -78 65 -119q57 -39 191 -59q92 31 92 176q0 135 -176 135q-78 0 -125 -37t-47 -96z" />
<glyph unicode="&#x203a;" horiz-adv-x="2150" d="M160 662q0 59 43 90q33 23 73 22q94 0 95 -82q0 -20 -8.5 -35.5t-8.5 -40.5q4 -18 43 -34.5t95 -16.5q209 0 208 256q0 86 -57 135q-49 39 -113 39q-160 0 -202 -106l-99 29l127 532h80q51 -57 228 -57q121 0 245 84l49 -52q-111 -197 -452 -196q-14 0 -52 3t-48 3 l-46 -193q86 53 197 54q154 0 252 -80q102 -86 102 -230q0 -137 -126 -227t-293 -90q-154 0 -246 59q-86 53 -86 134zM463 -82l1247 1538l94 -72l-1245 -1538zM1288 27q0 84 66 153q51 57 123 86q-154 86 -154 219q0 117 110.5 200t243.5 83q152 0 243 -65.5t91 -170.5 q0 -123 -158 -202q195 -80 195 -244q0 -133 -133 -221q-121 -82 -281 -82q-150 0 -248 71.5t-98 172.5zM1454 33q0 -156 197 -156q88 0 143 39q64 43 64 121q0 137 -293 196q-111 -55 -111 -200zM1505 543q0 -78 66 -119q57 -39 190 -59q92 31 92 176q0 135 -176 135 q-78 0 -125 -37t-47 -96z" />
<glyph unicode="&#x205f;" horiz-adv-x="495" />
<glyph unicode="&#x2122;" horiz-adv-x="1767" d="M84 1309v213h635v-213l-64 2q-12 39 -37 80q-31 51 -55 55q-49 4 -76 4h-16v-504q0 -27 16 -31q47 -14 93 -14v-70h-357v70q61 0 92 10q16 6 17 27v512h-17q-49 0 -75.5 -4t-54 -50t-40.5 -85zM784 831v64q39 6 99 27q23 12 22 114v334q0 43 -22 62q-31 20 -92 24v66h260 l196 -457l160 367q8 20 29 90h254v-68q-63 -4 -88 -12q-14 -4 -15 -29v-473q0 -20 17 -27q37 -12 86 -12v-70h-353v70q72 0 92.5 11.5t20.5 27.5v389l-215 -485h-47q-4 12 -58 143l-143 348v-295q0 -90 25 -114q35 -25 102 -25v-70h-330z" />
<glyph unicode="&#x25fc;" horiz-adv-x="1105" d="M0 0v1106h1106v-1106h-1106z" />
</font>
</defs>
</svg>
